<?xml version="1.0" standalone="no"?>
<!DOCTYPE svg PUBLIC "-//W3C//DTD SVG 1.1//EN" "http://www.w3.org/Graphics/SVG/1.1/DTD/svg11.dtd" >
<svg xmlns="http://www.w3.org/2000/svg" xmlns:xlink="http://www.w3.org/1999/xlink" version="1.1">
<metadata>
Created by FontForge 20170731 at Wed Sep  1 18:46:30 2021
 By Aleksey,,,
Copyright 2020 The Inter Project Authors (https://github.com/rsms/inter)
</metadata>
<defs>
<font id="Inter-Black" horiz-adv-x="0" >
  <font-face 
    font-family="Inter Black"
    font-weight="900"
    font-stretch="normal"
    units-per-em="2816"
    panose-1="2 0 5 3 0 0 0 2 0 4"
    ascent="2252"
    descent="-564"
    x-height="1536"
    cap-height="2048"
    bbox="-2672.01 -928 7274 3180"
    underline-thickness="192"
    underline-position="-752"
    unicode-range="U+0020-1F852"
  />
<missing-glyph horiz-adv-x="3060" 
d="M320 -640v512h2420v-512h-2420zM320 1472v512h2420v-512h-2420zM320 2176v512h2420v-512h-2420zM320 64v512h2420v-512h-2420zM320 768v512h2420v-512h-2420z" />
    <glyph glyph-name=".notdef" horiz-adv-x="3060" 
d="M320 -640v512h2420v-512h-2420zM320 1472v512h2420v-512h-2420zM320 2176v512h2420v-512h-2420zM320 64v512h2420v-512h-2420zM320 768v512h2420v-512h-2420z" />
    <glyph glyph-name=".null" 
 />
    <glyph glyph-name="nonmarkingreturn" horiz-adv-x="938" 
 />
    <glyph glyph-name="uni0020" unicode=" " horiz-adv-x="560" 
 />
    <glyph glyph-name="uni0021" unicode="!" horiz-adv-x="1000" 
d="M780 2048l-52 -1408h-456l-52 1408h560zM500 -32q-116 0 -198.5 81.5t-81.5 198.5q-1 114 81.5 195t198.5 81q110 0 194.5 -81t85.5 -195q-1 -78 -40.5 -141.5t-102.5 -101t-137 -37.5z" />
    <glyph glyph-name="uni0022" unicode="&#x22;" horiz-adv-x="1084" 
d="M460 2048v-828h-360v828h360zM980 2048v-828h-360v828h360z" />
    <glyph glyph-name="uni0023" unicode="#" horiz-adv-x="1864" 
d="M924 0l336 2048h400l-336 -2048h-400zM16 468l68 400h1648l-68 -400h-1648zM204 0l336 2048h400l-336 -2048h-400zM132 1180l68 400h1648l-68 -400h-1648z" />
    <glyph glyph-name="uni0024" unicode="$" horiz-adv-x="1876" 
d="M880 -256v2560h164v-2560h-164zM1236 1408q-8 100 -74.5 156t-201.5 56q-86 0 -140.5 -20.5t-80.5 -55.5t-27 -80q-2 -37 13.5 -66.5t49.5 -53t87 -42.5t126 -34l168 -36q170 -36 291 -95t198 -138.5t113.5 -178.5t37.5 -216q-1 -202 -101 -342t-285.5 -213t-445.5 -73
q-267 0 -465.5 79t-308 243.5t-110.5 421.5h528q5 -94 47 -158t118.5 -97t182.5 -33q89 0 149 22t91 61t32 89q-1 47 -30.5 82.5t-96.5 64t-181 53.5l-204 44q-272 59 -428.5 197.5t-155.5 378.5q-1 195 104.5 341.5t293 228.5t430.5 82q248 0 429 -83t279.5 -233.5
t99.5 -351.5h-532z" />
    <glyph glyph-name="uni0025" unicode="%" horiz-adv-x="2508" 
d="M1308 384v108q0 130 56.5 240t164.5 177t263 67q159 0 267.5 -66t164.5 -176t56 -242v-108q0 -130 -56.5 -240t-165.5 -177t-266 -67t-265 67t-163.5 177t-55.5 240zM1656 492v-108q0 -57 28.5 -112.5t107.5 -55.5q83 0 109.5 54t26.5 114v108q0 60 -25 116t-111 56
q-79 0 -107.5 -56t-28.5 -116zM236 1556v108q0 132 57.5 242t165.5 176t261 66q159 0 267.5 -66t164.5 -176t56 -242v-108q0 -132 -56.5 -241t-165.5 -174t-266 -65t-265 66t-163.5 175t-55.5 239zM588 1664v-108q0 -60 28 -114t104 -54q83 0 109.5 54t26.5 114v108
q0 60 -25 116t-111 56q-79 0 -105.5 -57.5t-26.5 -114.5zM406 0l1408 2048h284l-1408 -2048h-284z" />
    <glyph glyph-name="uni0026" unicode="&#x26;" horiz-adv-x="1964" 
d="M800 -32q-220 0 -379 78t-244 209t-85 289q0 115 44 203.5t123 162.5t185 146l464 288q70 44 95 91.5t25 84.5q0 49 -36 87t-112 37q-47 0 -81 -17.5t-52.5 -48.5t-18.5 -74q0 -59 34 -120.5t93 -132.5t133 -159l992 -1092h-552l-832 880q-61 65 -135 159.5t-127.5 213.5
t-53.5 259q0 156 75 285t210 206t315 77q172 0 296.5 -71t192 -189t67.5 -260q0 -143 -70.5 -267t-201.5 -217l-424 -300q-49 -34 -84.5 -78t-35.5 -114q0 -58 27 -99t76.5 -63t116.5 -22q102 0 204.5 49.5t187.5 139t136.5 212t51.5 267.5h436q0 -178 -37 -343t-119 -302
t-216 -231q-42 -21 -82 -40t-82 -40q-123 -79 -257 -111.5t-263 -32.5z" />
    <glyph glyph-name="uni0027" unicode="'" horiz-adv-x="564" 
d="M460 2048v-828h-360v828h360z" />
    <glyph glyph-name="uni0028" unicode="(" horiz-adv-x="1240" 
d="M240 792q0 369 100.5 679t319.5 577h540q-82 -99 -152.5 -240.5t-122 -309.5t-80.5 -348.5t-29 -357.5q0 -236 50 -475.5t137 -444t197 -336.5h-540q-219 267 -319.5 577t-100.5 679z" />
    <glyph glyph-name="uni0029" unicode=")" horiz-adv-x="1240" 
d="M1000 792q0 -369 -100.5 -679t-319.5 -577h-540q83 99 153 240.5t121.5 309.5t80.5 348.5t29 357.5q0 236 -50 475.5t-137 444t-197 336.5h540q219 -267 319.5 -577t100.5 -679z" />
    <glyph glyph-name="uni002A" unicode="*" horiz-adv-x="1712" 
d="M696 896l32 352l-292 -204l-160 280l320 148l-320 148l160 280l292 -204l-32 352h320l-32 -352l292 204l160 -280l-320 -148l320 -148l-160 -280l-292 204l32 -352h-320z" />
    <glyph glyph-name="uni002B" unicode="+" horiz-adv-x="1952" 
d="M752 92v1480h448v-1480h-448zM236 608v448h1480v-448h-1480z" />
    <glyph glyph-name="uni002C" unicode="," horiz-adv-x="896" 
d="M676 280l-8 -112q-10 -144 -47.5 -276t-79 -234t-65.5 -158h-340q16 56 45.5 161.5t54 238t24.5 268.5v112h416z" />
    <glyph glyph-name="uni002D" unicode="-" horiz-adv-x="1336" 
d="M1148 1024v-416h-960v416h960z" />
    <glyph glyph-name="uni002E" unicode="." horiz-adv-x="880" 
d="M440 -32q-116 0 -198.5 81.5t-81.5 198.5q-1 114 81.5 195t198.5 81q110 0 194.5 -81t85.5 -195q-1 -78 -40.5 -141.5t-102.5 -101t-137 -37.5z" />
    <glyph glyph-name="uni002F" unicode="/" horiz-adv-x="1160" 
d="M1144 2144l-660 -2452h-468l660 2452h468z" />
    <glyph glyph-name="uni0030" unicode="0" horiz-adv-x="2056" 
d="M1028 -56q-279 1 -482 129t-313 369t-109 578q1 338 110.5 574t312 359t481.5 123t482 -123.5t313 -359.5t109 -573q0 -339 -110 -580t-312.5 -368.5t-481.5 -127.5zM1028 396q144 0 236.5 150.5t91.5 473.5q0 211 -42 345t-116 198.5t-170 64.5q-144 0 -235 -146
t-93 -462q-1 -215 41 -353.5t116.5 -204.5t170.5 -66z" />
    <glyph glyph-name="uni0031" unicode="1" horiz-adv-x="1424" 
d="M1140 2048v-2048h-556v1536h-12l-448 -268v472l504 308h512z" />
    <glyph glyph-name="uni0032" unicode="2" horiz-adv-x="1820" 
d="M136 0v400l764 632q76 63 130.5 118.5t84 114.5t29.5 131q0 79 -33.5 135t-92.5 86.5t-136 30.5t-135.5 -31t-90.5 -91t-32 -146h-528q0 216 97 372t274 240t415 84q246 0 426.5 -78.5t279 -220.5t98.5 -333q0 -118 -49 -234.5t-176 -257.5t-361 -336l-192 -160v-12h800
v-444h-1572z" />
    <glyph glyph-name="uni0033" unicode="3" horiz-adv-x="1900" 
d="M936 -28q-242 0 -429.5 83.5t-294.5 230.5t-108 338h560q1 -59 36.5 -105.5t97.5 -72.5t142 -26q77 0 136 27.5t92 76.5t32 112q1 62 -37.5 110t-107.5 75t-159 27h-208v384h208q83 0 146.5 27t99 75t34.5 110q1 60 -29 106t-83.5 72t-123.5 26q-76 0 -135.5 -27
t-93.5 -75t-35 -110h-532q1 188 103.5 332t281.5 226t411 82q227 0 401.5 -77t273 -211.5t97.5 -307.5q2 -172 -117.5 -282t-302.5 -130v-16q248 -27 373 -151.5t123 -312.5q1 -180 -107.5 -319t-301 -218t-443.5 -79z" />
    <glyph glyph-name="uni0034" unicode="4" horiz-adv-x="1976" 
d="M116 320v432l824 1296h392v-576h-224l-444 -704v-16h1216v-432h-1764zM1112 0v452l12 188v1408h520v-2048h-532z" />
    <glyph glyph-name="uni0035" unicode="5" horiz-adv-x="1884" 
d="M956 -28q-236 0 -418.5 83.5t-287 230.5t-106.5 338h540q3 -106 82.5 -169t189.5 -63q85 0 150 36.5t102 103.5t36 156q1 90 -36 156.5t-102 103t-150 36.5q-88 0 -162.5 -42.5t-109.5 -117.5l-488 96l80 1128h1376v-444h-920l-40 -452h12q48 93 166 154.5t274 61.5
q183 0 326.5 -85t227 -234.5t82.5 -344.5q1 -214 -101.5 -379.5t-287.5 -259t-435 -93.5z" />
    <glyph glyph-name="uni0036" unicode="6" horiz-adv-x="1928" 
d="M992 -28q-179 0 -339.5 56.5t-284.5 178.5t-194.5 318t-69.5 475q1 249 64.5 448t181 339t281.5 214.5t365 74.5q226 0 398 -87t274.5 -232.5t119.5 -320.5h-548q-19 87 -87.5 127.5t-156.5 40.5q-175 0 -256.5 -152t-83.5 -400h12q39 94 118 161t184 103t222 36
q186 0 325.5 -84t217.5 -230t77 -334q1 -220 -103.5 -385t-289.5 -256t-427 -91zM988 392q83 0 147.5 38t101 104t35.5 150q1 85 -35.5 150.5t-101 103.5t-147.5 38q-61 0 -112.5 -21.5t-89.5 -61t-59.5 -93t-22.5 -116.5q1 -84 38 -150t101 -104t145 -38z" />
    <glyph glyph-name="uni0037" unicode="7" horiz-adv-x="1720" 
d="M228 0l804 1592v12h-944v444h1520v-444l-808 -1604h-572z" />
    <glyph glyph-name="uni0038" unicode="8" horiz-adv-x="1944" 
d="M972 -28q-248 0 -442.5 77t-306 209t-111.5 298q0 127 63.5 232t171.5 174.5t241 89.5v16q-175 30 -287.5 155.5t-112.5 296.5q0 161 102 286.5t279 197.5t403 72t403 -72.5t279 -198t102 -285.5q0 -172 -114 -297t-286 -155v-16q132 -20 240 -89.5t172 -174.5t64 -232
q0 -166 -111.5 -298t-306 -209t-442.5 -77zM972 356q79 0 140 32t96.5 88.5t35.5 127.5t-35.5 126t-96.5 86.5t-140 31.5q-78 0 -139.5 -31.5t-97 -86.5t-35.5 -126t35.5 -127t97 -88.5t139.5 -32.5zM972 1232q70 0 124 29t85 80t31 115t-31 113.5t-85 78t-124 28.5
q-69 0 -123.5 -28.5t-85.5 -78t-31 -113.5t31 -114.5t85.5 -80t123.5 -29.5z" />
    <glyph glyph-name="uni0039" unicode="9" horiz-adv-x="1928" 
d="M936 2076q179 0 339 -56.5t283.5 -177.5t194 -315.5t71.5 -470.5q1 -252 -62.5 -452.5t-181 -341.5t-282 -215.5t-366.5 -74.5q-227 0 -399 87t-274 234t-119 327h548q20 -93 88 -134.5t156 -41.5q176 0 257.5 152.5t82.5 407.5h-12q-39 -94 -118 -161t-184 -103
t-222 -36q-185 0 -324 83.5t-217 229t-79 331.5q-1 218 103 382t289 255t428 91zM940 1656q-83 0 -147.5 -38t-101 -103t-35.5 -147t37.5 -147t100 -103t146.5 -38q61 0 113 21.5t90.5 61t60 92t20.5 113.5q-1 82 -38 147t-101 103t-145 38z" />
    <glyph glyph-name="uni003A" unicode=":" horiz-adv-x="880" 
d="M440 -32q-116 0 -198.5 81.5t-81.5 198.5q-1 114 81.5 195t198.5 81q110 0 194.5 -81t85.5 -195q-1 -78 -40.5 -141.5t-102.5 -101t-137 -37.5zM440 1000q-116 0 -198.5 81.5t-81.5 198.5q-1 114 81.5 195t198.5 81q110 0 194.5 -81t85.5 -195q-1 -78 -40.5 -141.5
t-102.5 -101t-137 -37.5z" />
    <glyph glyph-name="uni003B" unicode=";" horiz-adv-x="896" 
d="M676 280l-8 -112q-10 -144 -47.5 -276t-79 -234t-65.5 -158h-340q16 56 45.5 161.5t54 238t24.5 268.5v112h416zM476 1000q-116 0 -198.5 81.5t-81.5 198.5q-1 114 81.5 195t198.5 81q110 0 194.5 -81t85.5 -195q-1 -78 -40.5 -141.5t-102.5 -101t-137 -37.5z" />
    <glyph glyph-name="uni003C" unicode="&#x3c;" horiz-adv-x="1952" 
d="M232 592v480l1488 596v-504l-948 -328l16 24v-56l-16 24l948 -328v-504z" />
    <glyph glyph-name="uni003D" unicode="=" horiz-adv-x="1952" 
d="M236 964v448h1480v-448h-1480zM236 252v448h1480v-448h-1480z" />
    <glyph glyph-name="uni003E" unicode="&#x3e;" horiz-adv-x="1952" 
d="M1720 592l-1488 -596v504l948 328l-16 -24v56l16 -24l-948 328v504l1488 -596v-480z" />
    <glyph glyph-name="uni003F" unicode="?" horiz-adv-x="1688" 
d="M544 640v48q0 165 26 263t77 157.5t125 107.5q64 42 114.5 81t80 83t29.5 100q0 50 -24 88t-65 59t-91 21q-54 0 -99.5 -25t-73 -69t-27.5 -102h-512q2 220 100 357.5t260 202t356 64.5q214 0 382 -62.5t265 -188t97 -313.5q0 -121 -41.5 -212.5t-115 -161t-171.5 -126.5
q-72 -42 -121 -86.5t-74 -101t-25 -136.5v-48h-472zM788 -32q-116 0 -198.5 81.5t-81.5 198.5q-1 114 81.5 195t198.5 81q110 0 194.5 -81t85.5 -195q-1 -78 -40.5 -141.5t-102.5 -101t-137 -37.5z" />
    <glyph glyph-name="uni0040" unicode="@" horiz-adv-x="3080" 
d="M1588 -624q-328 0 -586.5 88.5t-438.5 258.5t-275 413t-96 552q1 308 96 563.5t278.5 442t450.5 288.5t611 102q310 0 559.5 -84.5t427 -248t272 -401.5t93.5 -546q1 -210 -44 -367.5t-133 -265.5t-215.5 -168t-291.5 -75q-147 -14 -211 14t-83 80t-30 110h-12
q-23 -62 -107 -108t-198 -69t-227 -15q-110 8 -220 53t-201.5 135t-146.5 231.5t-56 340.5q1 200 55.5 340t141 231t187 140t192.5 65q121 22 235 5.5t194 -55t99 -82.5h16v112h380v-1024q2 -60 20.5 -80t43.5 -20q47 0 88.5 54.5t67 167t24.5 286.5q1 224 -57.5 374.5
t-156.5 242t-218.5 138t-247.5 62t-240 15.5q-259 0 -445.5 -77.5t-306.5 -212t-177.5 -307t-58.5 -363.5q1 -225 65.5 -397t189 -288t307 -175.5t418.5 -59.5q119 0 231 13.5t206 36t159 50.5l128 -360q-63 -42 -176.5 -77.5t-262 -57t-317.5 -21.5zM1588 352
q115 0 180.5 42.5t92 124t23.5 197.5q-1 88 -22.5 164.5t-86 124t-195.5 47.5q-109 0 -184.5 -38.5t-115 -114t-40.5 -187.5q1 -92 33.5 -174.5t108 -134t206.5 -51.5z" />
    <glyph glyph-name="uni0041" unicode="A" horiz-adv-x="2240" 
d="M664 0h-600l676 2048h760l676 -2048h-600l-448 1484h-16zM552 808h1128v-416h-1128v416z" />
    <glyph glyph-name="uni0042" unicode="B" horiz-adv-x="1880" 
d="M132 0v2048h888q234 0 393.5 -63t241 -178t81.5 -271q0 -113 -49.5 -206t-138.5 -155.5t-208 -86.5v-20q132 -5 240 -66.5t172 -169t64 -252.5q0 -168 -87.5 -299t-248.5 -206t-384 -75h-964zM688 444h260q140 0 210 52.5t70 155.5q0 72 -33 122t-93.5 76t-145.5 26h-268
v-432zM688 1220h228q73 0 129 23t87.5 66.5t31.5 106.5q0 95 -68 145.5t-172 50.5h-236v-392z" />
    <glyph glyph-name="uni0043" unicode="C" horiz-adv-x="2164" 
d="M2044 1280h-564q-6 70 -31.5 127t-70 98.5t-107.5 64t-143 22.5q-140 0 -236.5 -68t-146 -195t-49.5 -305q0 -188 50.5 -314.5t146.5 -190t231 -63.5q77 0 138 19.5t106 56.5t73.5 89.5t38.5 118.5l564 -4q-10 -130 -73 -264.5t-178.5 -248t-285.5 -182.5t-395 -69
q-282 0 -505.5 121t-353 356t-129.5 575q0 342 132 576.5t356 355t500 120.5q194 0 357 -53t286 -154.5t198 -249.5t91 -339z" />
    <glyph glyph-name="uni0044" unicode="D" horiz-adv-x="2064" 
d="M920 0h-788v2048h780q316 0 546.5 -122.5t356 -352t125.5 -549.5t-125 -549.5t-354 -352t-541 -122.5zM688 472h212q152 0 259.5 49t164 169t56.5 334t-57.5 334t-168 169t-270.5 49h-196v-1104z" />
    <glyph glyph-name="uni0045" unicode="E" horiz-adv-x="1752" 
d="M132 0v2048h1476v-448h-920v-352h844v-448h-844v-352h916v-448h-1472z" />
    <glyph glyph-name="uni0046" unicode="F" horiz-adv-x="1644" 
d="M132 0v2048h1440v-448h-884v-352h796v-448h-796v-800h-556z" />
    <glyph glyph-name="uni0047" unicode="G" horiz-adv-x="2176" 
d="M1462 1372q-13 53 -41 93.5t-69.5 69t-96 43t-119.5 14.5q-140 0 -238.5 -67t-150 -193t-51.5 -304q0 -180 49 -308t146 -196t241 -68q127 0 211.5 37t126.5 105t42 160l96 -10h-468v396h908v-284q0 -280 -118.5 -478.5t-326 -304t-475.5 -105.5q-299 0 -525 127
t-352.5 362t-126.5 559q0 254 77.5 450t215.5 331.5t319 205t388 69.5q182 0 338.5 -51.5t277 -146t194.5 -223.5t90 -283h-562z" />
    <glyph glyph-name="uni0048" unicode="H" horiz-adv-x="2112" 
d="M132 0v2048h556v-800h736v800h556v-2048h-556v800h-736v-800h-556z" />
    <glyph glyph-name="uni0049" unicode="I" horiz-adv-x="820" 
d="M688 2048v-2048h-556v2048h556z" />
    <glyph glyph-name="uni004A" unicode="J" horiz-adv-x="1656" 
d="M976 2048h548v-1404q-1 -200 -100.5 -351.5t-274 -236t-401.5 -84.5q-197 0 -360 68.5t-260 216t-96 383.5h556q3 -77 26.5 -130t66 -79.5t103.5 -26.5q62 0 104.5 27t64.5 80.5t23 132.5v1404z" />
    <glyph glyph-name="uni004B" unicode="K" horiz-adv-x="2012" 
d="M132 0v2048h556v-828h28l616 828h648l-692 -912l708 -1136h-664l-460 768l-184 -240v-528h-556z" />
    <glyph glyph-name="uni004C" unicode="L" horiz-adv-x="1608" 
d="M132 0v2048h556v-1600h828v-448h-1384z" />
    <glyph glyph-name="uni004D" unicode="M" horiz-adv-x="2624" 
d="M132 2048h692l476 -1160h24l476 1160h692v-2048h-544v1184h-16l-456 -1168h-328l-456 1176h-16v-1192h-544v2048z" />
    <glyph glyph-name="uni004E" unicode="N" horiz-adv-x="2036" 
d="M1904 2048v-2048h-464l-740 1076h-12v-1076h-556v2048h472l728 -1072h16v1072h556z" />
    <glyph glyph-name="uni004F" unicode="O" horiz-adv-x="2240" 
d="M2116 1024q0 -342 -133 -576.5t-359 -355t-504 -120.5q-280 0 -505.5 121.5t-358 356t-132.5 574.5q0 342 132.5 576.5t358 355t505.5 120.5q278 0 504 -120.5t359 -355t133 -576.5zM1544 1024q0 184 -48.5 310.5t-143 192t-232.5 65.5t-232.5 -65.5t-143 -192
t-48.5 -310.5t48.5 -310.5t143 -192t232.5 -65.5t232.5 65.5t143 192t48.5 310.5z" />
    <glyph glyph-name="uni0050" unicode="P" horiz-adv-x="1848" 
d="M132 0v2048h884q228 0 399 -90t266 -253t95 -381q0 -220 -97.5 -381t-273 -248t-409.5 -87h-528v432h416q98 0 167.5 34.5t107 98.5t37.5 151q0 88 -37.5 150.5t-107 96t-167.5 33.5h-196v-1604h-556z" />
    <glyph glyph-name="uni0051" unicode="Q" horiz-adv-x="2244" 
d="M924 760h432l156 -196l264 -300l344 -416h-492l-244 284l-164 236zM2116 1024q0 -342 -133 -576.5t-359 -355t-504 -120.5q-280 0 -505.5 121.5t-358 356t-132.5 574.5q0 342 132.5 576.5t358 355t505.5 120.5q278 0 504 -120.5t359 -355t133 -576.5zM1544 1024
q0 184 -48.5 310.5t-143 192t-232.5 65.5t-232.5 -65.5t-143 -192t-48.5 -310.5t48.5 -310.5t143 -192t232.5 -65.5t232.5 65.5t143 192t48.5 310.5z" />
    <glyph glyph-name="uni0052" unicode="R" horiz-adv-x="1880" 
d="M132 0v2048h884q228 0 399 -83t266 -239t95 -374q0 -220 -97.5 -371t-273 -228t-409.5 -77h-528v432h416q98 0 167.5 24.5t107 78.5t37.5 141q0 88 -37.5 143.5t-107 82t-167.5 26.5h-196v-1604h-556zM1332 940l512 -940h-604l-500 940h592z" />
    <glyph glyph-name="uni0053" unicode="S" horiz-adv-x="1876" 
d="M1236 1408q-8 100 -74.5 156t-201.5 56q-86 0 -140.5 -20.5t-80.5 -55.5t-27 -80q-2 -37 13.5 -66.5t49.5 -53t87 -42.5t126 -34l168 -36q170 -36 291 -95t198 -138.5t113.5 -178.5t37.5 -216q-1 -202 -101 -342t-285.5 -213t-445.5 -73q-267 0 -465.5 79t-308 243.5
t-110.5 421.5h528q5 -94 47 -158t118.5 -97t182.5 -33q89 0 149 22t91 61t32 89q-1 47 -30.5 82.5t-96.5 64t-181 53.5l-204 44q-272 59 -428.5 197.5t-155.5 378.5q-1 195 104.5 341.5t293 228.5t430.5 82q248 0 429 -83t279.5 -233.5t99.5 -351.5h-532z" />
    <glyph glyph-name="uni0054" unicode="T" horiz-adv-x="1932" 
d="M76 1600v448h1780v-448h-616v-1600h-548v1600h-616z" />
    <glyph glyph-name="uni0055" unicode="U" horiz-adv-x="2032" 
d="M1344 2048h556v-1312q0 -234 -111.5 -404.5t-310.5 -263t-462 -92.5q-265 0 -464 92.5t-309.5 263t-110.5 404.5v1312h556v-1264q0 -95 42 -169.5t116.5 -116.5t169.5 -42q96 0 170 42t116 116.5t42 169.5v1264z" />
    <glyph glyph-name="uni0056" unicode="V" horiz-adv-x="2240" 
d="M692 2048l420 -1444h16l420 1444h628l-676 -2048h-760l-676 2048h628z" />
    <glyph glyph-name="uni0057" unicode="W" horiz-adv-x="3080" 
d="M652 0l-604 2048h620l280 -1260h16l332 1260h488l332 -1264h16l280 1264h620l-604 -2048h-532l-348 1144h-16l-348 -1144h-532z" />
    <glyph glyph-name="uni0058" unicode="X" horiz-adv-x="2148" 
d="M728 2048l336 -596h16l340 596h620l-612 -1024l636 -1024h-636l-348 608h-16l-348 -608h-632l628 1024l-608 1024h624z" />
    <glyph glyph-name="uni0059" unicode="Y" horiz-adv-x="2152" 
d="M48 2048h620l400 -832h16l400 832h620l-752 -1404v-644h-552v644z" />
    <glyph glyph-name="uni005A" unicode="Z" horiz-adv-x="1956" 
d="M140 0v308l968 1292h-964v448h1672v-308l-968 -1292h964v-448h-1672z" />
    <glyph glyph-name="uni005B" unicode="[" horiz-adv-x="1240" 
d="M276 -464v2512h920v-400h-384v-1712h384v-400h-920z" />
    <glyph glyph-name="uni005C" unicode="\" horiz-adv-x="1160" 
d="M676 -308l-660 2452h468l660 -2452h-468z" />
    <glyph glyph-name="uni005D" unicode="]" horiz-adv-x="1240" 
d="M964 2048v-2512h-920v400h384v1712h-384v400h920z" />
    <glyph glyph-name="uni005E" unicode="^" horiz-adv-x="1408" 
d="M668 1796h72v-116h-72v116zM80 1120l428 896h392l428 -896h-380l-252 600h16l-252 -600h-380z" />
    <glyph glyph-name="uni005F" unicode="_" horiz-adv-x="1388" 
d="M1388 0v-392h-1388v392h1388z" />
    <glyph glyph-name="uni0060" unicode="`" horiz-adv-x="1400" 
d="M668 1728l-300 448h472l192 -448h-364z" />
    <glyph glyph-name="uni0061" unicode="a" horiz-adv-x="1664" 
d="M568 -24q-147 0 -259.5 48.5t-176.5 147.5t-64 252q0 126 43 215.5t120 146.5t179.5 87t221.5 39q129 10 207.5 24.5t113.5 41t35 70.5v4q0 60 -46 92t-118 32q-79 0 -128.5 -34.5t-59.5 -105.5h-508q10 140 89.5 258.5t232.5 190t382 71.5q165 0 296 -38.5t223 -107
t140.5 -160t48.5 -198.5v-1052h-516v216h-12q-46 -86 -111.5 -139t-149 -77t-183.5 -24zM748 324q63 0 118.5 26t90.5 75t35 119v128q-22 -9 -46.5 -17t-52 -15t-58 -13t-63.5 -11q-64 -10 -104.5 -32.5t-60 -55t-19.5 -72.5q0 -64 45 -98t115 -34z" />
    <glyph glyph-name="uni0062" unicode="b" horiz-adv-x="1816" 
d="M132 0v2048h552v-780h8q30 78 88 143.5t144 105t200 39.5q152 0 289.5 -81t224 -255t86.5 -452q0 -266 -82.5 -441t-220 -261t-301.5 -86q-108 0 -192.5 35.5t-144 97t-91.5 139.5h-12v-252h-548zM672 768q0 -112 29.5 -193.5t84 -126t130.5 -44.5t129.5 43.5t82 125
t28.5 195.5t-28.5 195.5t-82 125t-129.5 43.5t-130.5 -43.5t-84 -125t-29.5 -195.5z" />
    <glyph glyph-name="uni0063" unicode="c" horiz-adv-x="1708" 
d="M880 -28q-250 0 -428 99.5t-273 278t-95 414.5t95 414.5t273 278t428 99.5q226 0 391.5 -81.5t256.5 -230t92 -348.5h-512q-11 121 -69.5 184.5t-150.5 63.5q-72 0 -126 -41.5t-84 -125t-30 -209.5t30 -209.5t84 -125t126 -41.5q61 0 108 28.5t76.5 84t35.5 135.5h512
q-3 -203 -93 -353.5t-254.5 -232.5t-392.5 -82z" />
    <glyph glyph-name="uni0064" unicode="d" horiz-adv-x="1816" 
d="M696 -20q-164 0 -301.5 86t-220 261t-82.5 441q0 278 86.5 452t224 255t289.5 81q114 0 200 -39.5t144 -105t88 -143.5h8v780h552v-2048h-548v252h-12q-32 -78 -91.5 -139.5t-144 -97t-192.5 -35.5zM900 404q76 0 130.5 44.5t84 126t29.5 193.5q0 114 -29.5 195.5
t-84 125t-130.5 43.5t-129.5 -43.5t-82 -125t-28.5 -195.5t28.5 -195.5t82 -125t129.5 -43.5z" />
    <glyph glyph-name="uni0065" unicode="e" horiz-adv-x="1712" 
d="M876 -28q-246 0 -423.5 94.5t-273 272t-95.5 425.5q0 238 96 416t271 277t413 99q174 0 315 -54t241 -156.5t154 -248.5t54 -329v-128h-1372v304h864q-1 66 -33.5 116.5t-87 79t-123.5 28.5q-67 0 -123 -28.5t-89.5 -78.5t-35.5 -117v-328q0 -74 31 -132t89 -91t140 -33
q57 0 104.5 16t81.5 46.5t50 73.5h504q-26 -160 -123 -277.5t-256.5 -182t-372.5 -64.5z" />
    <glyph glyph-name="uni0066" unicode="f" horiz-adv-x="1132" 
d="M1060 1536v-400h-1028v400h1028zM228 0v1580q0 190 68 315t192 187t292 62q105 0 204.5 -16t147.5 -28l-80 -396q-30 9 -70 14.5t-70 5.5q-78 0 -105 -33t-27 -87v-1604h-552z" />
    <glyph glyph-name="uni0067" unicode="g" horiz-adv-x="1828" 
d="M880 -608q-231 0 -395.5 65.5t-255 180t-101.5 262.5h532q8 -49 40 -79t82.5 -43.5t113.5 -13.5q107 0 177.5 52t70.5 188v260h-16q-30 -78 -92 -132.5t-149 -83t-191 -28.5q-164 0 -301.5 76t-220 241t-82.5 431q0 278 86.5 452t224 255t289.5 81q114 0 200 -39.5
t144 -105t88 -143.5h12v268h552v-1532q0 -195 -100.5 -331.5t-282.5 -208.5t-425 -72zM900 412q76 0 130.5 42.5t84 122t29.5 191.5q0 114 -29.5 195.5t-84 125t-130.5 43.5t-129.5 -43.5t-82 -125t-28.5 -195.5t28.5 -193.5t82 -121t129.5 -41.5z" />
    <glyph glyph-name="uni0068" unicode="h" horiz-adv-x="1820" 
d="M692 864v-864h-552v2048h532v-804h16q52 147 173 229.5t291 82.5q163 0 283.5 -74t187 -204t65.5 -298v-980h-552v864q1 114 -56.5 179t-163.5 65q-67 0 -117.5 -29.5t-78 -84t-28.5 -130.5z" />
    <glyph glyph-name="uni0069" unicode="i" horiz-adv-x="832" 
d="M140 0v1536h552v-1536h-552zM417 1696q-113 0 -193 74t-80 178t80 178t192 74q113 0 192.5 -74t79.5 -178t-79.5 -178t-191.5 -74z" />
    <glyph glyph-name="uni006A" unicode="j" horiz-adv-x="832" 
d="M140 1536h552v-1588q0 -202 -84.5 -316t-236.5 -161t-355 -47q-30 0 -55.5 1t-56.5 3v408q20 -2 34.5 -3t29.5 -1q99 0 135.5 30.5t36.5 97.5v1576zM416 1696q-112 0 -192 74t-80 178t80 178t192 74q113 0 192.5 -74t79.5 -178t-79.5 -178t-192.5 -74z" />
    <glyph glyph-name="uni006B" unicode="k" horiz-adv-x="1708" 
d="M636 364l4 656h72l372 516h620l-624 -804h-156zM140 0v2048h552v-2048h-552zM1088 0l-352 608l360 392l624 -1000h-632z" />
    <glyph glyph-name="uni006C" unicode="l" horiz-adv-x="832" 
d="M692 2048v-2048h-552v2048h552z" />
    <glyph glyph-name="uni006D" unicode="m" horiz-adv-x="2648" 
d="M140 0v1536h524v-292h16q48 144 164 228t276 84q162 0 279 -85.5t141 -226.5h16q39 141 166 226.5t298 85.5q221 0 358.5 -142t137.5 -378v-1036h-552v896q0 101 -51 158.5t-137 57.5q-85 0 -134.5 -57.5t-49.5 -158.5v-896h-528v896q0 101 -51 158.5t-137 57.5
q-57 0 -98 -26t-63.5 -74.5t-22.5 -115.5v-896h-552z" />
    <glyph glyph-name="uni006E" unicode="n" horiz-adv-x="1820" 
d="M692 864v-864h-552v1536h524v-292h16q50 146 176.5 229t295.5 83q163 0 283.5 -74.5t187 -204.5t65.5 -297v-980h-552v864q1 114 -57.5 179t-162.5 65q-68 0 -118.5 -29.5t-77.5 -84t-28 -130.5z" />
    <glyph glyph-name="uni006F" unicode="o" horiz-adv-x="1760" 
d="M880 -28q-250 0 -428 99.5t-273 278t-95 414.5t95 414.5t273 278t428 99.5t428 -99.5t273 -278t95 -414.5t-95 -414.5t-273 -278t-428 -99.5zM884 380q70 0 121 47t79 134t28 207q0 121 -28 207.5t-79 133.5t-121 47q-74 0 -127 -47t-81 -133.5t-28 -207.5
q0 -120 28 -207t81 -134t127 -47z" />
    <glyph glyph-name="uni0070" unicode="p" horiz-adv-x="1824" 
d="M140 -576v2112h548v-268h12q30 78 88 143.5t144 105t200 39.5q152 0 289.5 -81t224 -255t86.5 -452q0 -266 -82.5 -441t-220 -261t-301.5 -86q-108 0 -192.5 35.5t-144 97t-91.5 139.5h-8v-828h-552zM680 768q0 -112 29.5 -193.5t84 -126t130.5 -44.5t129.5 43.5t82 125
t28.5 195.5t-28.5 195.5t-82 125t-129.5 43.5t-130.5 -43.5t-84 -125t-29.5 -195.5z" />
    <glyph glyph-name="uni0071" unicode="q" horiz-adv-x="1824" 
d="M1132 -576v828h-8q-32 -78 -91.5 -139.5t-144 -97t-192.5 -35.5q-164 0 -301.5 86t-220 261t-82.5 441q0 278 86.5 452t224 255t289.5 81q114 0 200 -39.5t144 -105t88 -143.5h12v268h548v-2112h-552zM900 404q76 0 130.5 44.5t84 126t29.5 193.5q0 114 -29.5 195.5
t-84 125t-130.5 43.5t-129.5 -43.5t-82 -125t-28.5 -195.5t28.5 -195.5t82 -125t129.5 -43.5z" />
    <glyph glyph-name="uni0072" unicode="r" horiz-adv-x="1220" 
d="M140 0v1536h536v-292h16q42 162 133.5 237t214.5 75q36 0 71.5 -5.5t68.5 -15.5v-471q-41 14 -101 21t-103 7q-81 0 -145.5 -36.5t-101.5 -102t-37 -153.5v-800h-552z" />
    <glyph glyph-name="uni0073" unicode="s" horiz-adv-x="1656" 
d="M1544 1036h-508q-4 47 -33 81t-74.5 52.5t-100.5 18.5q-71 0 -122 -26t-50 -74q-1 -34 29.5 -63t118.5 -45l312 -56q236 -43 351.5 -144.5t116.5 -271.5q-1 -164 -97.5 -284.5t-263 -186t-379.5 -65.5q-352 0 -550.5 144t-221.5 380h548q11 -73 72.5 -112.5t155.5 -39.5
q76 0 125.5 26t50.5 74q-1 44 -43.5 70t-132.5 42l-272 48q-235 41 -352 156t-116 296q-1 160 84.5 271.5t245 170t378.5 58.5q333 0 525.5 -138t202.5 -382z" />
    <glyph glyph-name="uni0074" unicode="t" horiz-adv-x="1140" 
d="M1056 1536v-400h-1012v400h1012zM240 1904h552v-1410q0 -32 11 -53.5t34 -32t59 -10.5q25 0 58.5 6t49.5 10l80 -388q-37 -11 -105.5 -27t-162.5 -21q-190 -10 -319 39.5t-194 156.5t-63 268v1462z" />
    <glyph glyph-name="uni0075" unicode="u" horiz-adv-x="1828" 
d="M1136 672v864h552v-1536h-524v292h-16q-50 -147 -175 -229.5t-297 -82.5q-161 0 -281.5 74t-187 204t-67.5 298v980h552v-864q1 -114 58.5 -179t161.5 -65q69 0 119.5 29.5t78 84t26.5 130.5z" />
    <glyph glyph-name="uni0076" unicode="v" horiz-adv-x="1704" 
d="M1688 1536l-516 -1536h-640l-516 1536h580l248 -1016h16l248 1016h580z" />
    <glyph glyph-name="uni0077" unicode="w" horiz-adv-x="2464" 
d="M412 0l-384 1536h552l176 -936h12l196 936h536l204 -928h12l168 928h552l-384 -1536h-596l-216 824h-16l-216 -824h-596z" />
    <glyph glyph-name="uni0078" unicode="x" horiz-adv-x="1680" 
d="M616 1536l224 -476l236 476h548l-412 -768l432 -768h-544l-260 488l-252 -488h-552l436 768l-408 768h552z" />
    <glyph glyph-name="uni0079" unicode="y" horiz-adv-x="1704" 
d="M476 -576q-95 0 -181 14.5t-151 39.5l120 392q68 -24 124.5 -31t97 8t58.5 57l12 28l-540 1604h576l248 -1064h16l252 1064h580l-560 -1664q-42 -127 -121.5 -228.5t-208.5 -160.5t-322 -59z" />
    <glyph glyph-name="uni007A" unicode="z" horiz-adv-x="1668" 
d="M156 0v304l672 804v8h-648v420h1300v-336l-612 -772v-8h636v-420h-1348z" />
    <glyph glyph-name="uni007B" unicode="{" horiz-adv-x="1240" 
d="M76 780v252q176 0 244 68.5t68 215.5v156q0 216 67.5 334.5t182 169.5t259.5 61.5t299 10.5v-400q-120 0 -178 -27t-76 -82t-18 -139v-220q0 -75 -33.5 -146.5t-123.5 -128.5t-257 -91t-434 -34zM1196 -464q-154 0 -299 10.5t-259.5 61.5t-182 169.5t-67.5 334.5v156
q0 147 -68 215.5t-244 68.5v252q267 0 434 -34t257 -91t123.5 -128.5t33.5 -146.5v-220q0 -83 18 -138.5t76 -82.5t178 -27v-400zM76 552v480h440v-480h-440z" />
    <glyph glyph-name="uni007C" unicode="|" horiz-adv-x="1140" 
d="M840 2708v-3368h-540v3368h540z" />
    <glyph glyph-name="uni007D" unicode="}" horiz-adv-x="1240" 
d="M1164 804v-252q-175 0 -243.5 -68.5t-68.5 -215.5v-156q0 -216 -67.5 -334.5t-182 -169.5t-259 -61.5t-299.5 -10.5v400q120 0 178 27t76 82.5t18 138.5v220q0 75 33.5 146.5t123.5 128.5t257 91t434 34zM44 2048q155 0 299.5 -10.5t259 -61.5t182 -169.5t67.5 -334.5
v-156q0 -147 68.5 -215.5t243.5 -68.5v-252q-267 0 -434 34t-257 91t-123.5 128.5t-33.5 146.5v220q0 84 -18 139t-76 82t-178 27v400zM1164 1032v-480h-440v480h440z" />
    <glyph glyph-name="uni007E" unicode="~" horiz-adv-x="1952" 
d="M204 516q-8 205 40.5 356t153 233.5t262.5 82.5q89 0 175.5 -35t196.5 -133q47 -41 83.5 -68.5t88.5 -27.5q61 0 104.5 51.5t39.5 172.5h400q9 -205 -42 -356t-156 -233.5t-258 -82.5q-97 0 -185.5 39t-190.5 129q-55 49 -86.5 72.5t-81.5 23.5q-63 0 -105 -51.5
t-39 -172.5h-400z" />
    <glyph glyph-name="uni00A0" unicode="&#xa0;" horiz-adv-x="560" 
 />
    <glyph glyph-name="uni00A1" unicode="&#xa1;" horiz-adv-x="1000" 
d="M780 -516h-560l52 1408h456zM500 1564q110 0 194.5 -81.5t85.5 -198.5q-1 -114 -85.5 -195t-194.5 -81q-116 0 -198.5 81t-81.5 195q-1 78 37 141.5t102 101t141 37.5z" />
    <glyph glyph-name="uni00A2" unicode="&#xa2;" horiz-adv-x="1708" 
d="M804 0v2048h164v-2048h-164zM880 232q-250 0 -428 99.5t-273 278t-95 414.5t95 414.5t273 278t428 99.5q226 0 391.5 -81.5t256.5 -230t92 -348.5h-512q-11 121 -69.5 184.5t-150.5 63.5q-72 0 -126 -41.5t-84 -125t-30 -209.5t30 -209.5t84 -125t126 -41.5
q61 0 108 28.5t76.5 84t35.5 135.5h512q-3 -203 -93 -353.5t-254.5 -232.5t-392.5 -82z" />
    <glyph glyph-name="uni00A3" unicode="&#xa3;" horiz-adv-x="1968" 
d="M1784 0h-1576v448h1576v-448zM1412 828h-1208v416h1208v-416zM972 1496l32 -840q5 -144 -75.5 -225.5t-268.5 -150.5l-288 168q33 16 49.5 36.5t22 52t4.5 79.5l-32 880q-7 180 73.5 310t232 200t358.5 70q166 0 291.5 -38t212.5 -112.5t134.5 -182t57.5 -247.5l-520 -24
q-5 72 -28 109t-60 50t-84 13q-41 0 -66 -17t-36 -50t-10 -81z" />
    <glyph glyph-name="uni00A4" unicode="&#xa4;" horiz-adv-x="2232" 
d="M1120 -28q-178 0 -334 65.5t-274.5 183.5t-185.5 275t-66 340q-1 183 66 339.5t185.5 273.5t274.5 182t334 65q175 0 329.5 -65t272.5 -182t185.5 -273.5t68.5 -339.5q-1 -183 -68.5 -340t-185.5 -275t-272.5 -183.5t-329.5 -65.5zM1120 260q119 0 224 43.5t184.5 121.5
t125 183t46.5 228q-1 166 -79.5 296t-210 205t-290.5 75q-165 0 -296.5 -75t-208 -205t-75.5 -296q-1 -164 75.5 -294.5t208 -206t296.5 -75.5zM1748 1248l-212 216l288 284l216 -216zM1824 -44l-288 284l212 212l292 -280zM416 -44l-212 216l288 280l216 -212zM492 1248
l-288 284l212 216l292 -284z" />
    <glyph glyph-name="uni00A5" unicode="&#xa5;" horiz-adv-x="1656" 
d="M596 2048l356 -960l-360 -316l-552 1276h556zM712 1104l348 944h556l-556 -1276zM1092 1080v-1080h-548v1080h548zM1468 1080v-292h-1352v292h1352zM1468 684v-292h-1352v292h1352z" />
    <glyph glyph-name="uni00A6" unicode="&#xa6;" horiz-adv-x="1120" 
d="M316 584h488v-968h-488v968zM804 2048v-964h-488v964h488z" />
    <glyph glyph-name="uni00A7" unicode="&#xa7;" horiz-adv-x="1748" 
d="M1492 1524h-472q-1 42 -44.5 71t-123.5 29q-28 0 -65 -4t-64 -23t-27 -65q0 -40 28.5 -70.5t69 -50t74.5 -27.5l380 -144q40 -15 102 -46.5t120.5 -86.5t92 -139t17.5 -204q-12 -90 -59.5 -136t-98 -64t-74.5 -24l-8 -4q92 -81 141.5 -179.5t50.5 -224.5
q0 -164 -82.5 -286.5t-228 -190t-337.5 -67.5q-202 0 -354.5 71.5t-237 200t-84.5 300.5h472q-1 -60 52.5 -92.5t159.5 -23.5q53 3 106 21.5t54 66.5q0 36 -29 65t-67 50t-68 33l-380 140q-42 15 -104.5 46.5t-121 87t-92 140.5t-18.5 206q12 92 57 137t97 62t82 25v0
q-85 81 -137 180t-51 228q0 156 80 279t223 194t329 71q190 0 333.5 -72t225 -197t81.5 -283zM1144 728q8 18 -2.5 39.5t-44 44t-97.5 44.5l-296 100q-30 10 -49.5 10t-31 -8t-19.5 -22q-13 -24 20 -61t124 -67l308 -104q24 -8 40 -8t28 8t20 24z" />
    <glyph glyph-name="uni00A8" unicode="&#xa8;" horiz-adv-x="1400" 
d="M384 1716q-102 0 -173 68t-71 164t71 164t173 68q99 0 169.5 -68t70.5 -164t-70.5 -164t-169.5 -68zM1020 1716q-102 0 -173 68t-71 164t71 164t173 68q99 0 169.5 -68t70.5 -164t-70.5 -164t-169.5 -68z" />
    <glyph glyph-name="uni00A9" unicode="&#xa9;" horiz-adv-x="2576" 
d="M750 1024q0 150 73.5 273.5t197 197t273.5 73.5q133 0 245.5 -59t185 -160.5t85.5 -228.5h-334q-12 57 -63.5 92.5t-118.5 35.5q-61 0 -112 -29.5t-81.5 -80t-30.5 -112.5t30.5 -113.5t81.5 -82t112 -30.5q67 0 118.5 35.5t63.5 92.5h334q-13 -127 -85.5 -228.5
t-185 -160.5t-245.5 -59q-150 0 -273.5 73.5t-197 197t-73.5 273.5zM1288 -32q-218 0 -409.5 82t-337 227.5t-228 336.5t-81.5 410t83.5 410t227.5 336.5t336 227.5t409 82q219 0 410.5 -82t336 -227.5t226.5 -336.5t83 -410t-81 -410t-227 -336.5t-337 -227.5t-411 -82z
M1288 368q137 0 256 51t209 141t140.5 208.5t50.5 254.5q0 137 -51 256t-141 209t-209 141t-255 51q-135 0 -253.5 -51t-209 -141.5t-142 -209.5t-51.5 -255q0 -135 51 -253.5t141 -209t209 -141.5t255 -51z" />
    <glyph glyph-name="uni00AA" unicode="&#xaa;" horiz-adv-x="1444" 
d="M896 1184v468q0 81 -40.5 128.5t-127.5 47.5q-93 0 -144.5 -35t-51.5 -101l-252 16q0 141 123.5 232.5t324.5 91.5q189 0 304.5 -95.5t115.5 -284.5v-432q0 -54 6.5 -118.5t33.5 -133.5h-256q-15 45 -25.5 100.5t-10.5 115.5zM960 1580v-160h-208q-123 0 -181.5 -46
t-58.5 -106q0 -54 40.5 -87t127.5 -33q58 0 118 26t101 63t41 71l24 -164q-33 -69 -117 -130.5t-231 -61.5q-171 0 -263.5 85.5t-92.5 226.5q0 153 121.5 234.5t370.5 81.5h208z" />
    <glyph glyph-name="uni00AB" unicode="&#xab;" horiz-adv-x="1924" 
d="M1056 220h-504l-404 600v20h524zM1056 1448l-384 -620h-524v20l404 600h504zM1812 220h-504l-404 600v20h524zM1812 1448l-384 -620h-524v20l404 600h504z" />
    <glyph glyph-name="uni00AC" unicode="&#xac;" horiz-adv-x="1708" 
d="M1460 1108v-236h-1204v236h1204zM1460 1000v-484h-288v484h288z" />
    <glyph glyph-name="uni00AD" unicode="&#xad;" horiz-adv-x="1336" 
d="M1148 1024v-416h-960v416h960z" />
    <glyph glyph-name="uni00AE" unicode="&#xae;" horiz-adv-x="1856" 
d="M632 916v738h352q87 0 149 -31t94.5 -87t32.5 -132q0 -77 -34 -131t-97 -82.5t-151 -28.5h-232v152h198q48 0 73 23t25 67q0 47 -25 70.5t-73 23.5h-100v-582h-212zM1120 1252l158 -336h-232l-142 336h216zM928 476q-166 0 -311 62t-255 172t-172 255t-62 311t62 311
t172 255t255 172t311 62t311 -62t255 -172t172 -255t62 -311t-62 -311t-172 -255t-255 -172t-311 -62zM928 700q160 0 290.5 77.5t208 208.5t77.5 290t-77.5 290t-208.5 208.5t-290 77.5t-290 -77.5t-208.5 -208.5t-77.5 -290t77.5 -289.5t208.5 -208.5t290 -78z" />
    <glyph glyph-name="uni00AF" unicode="&#xaf;" horiz-adv-x="1808" 
d="M1404 2048v-252h-1000v252h1000z" />
    <glyph glyph-name="uni00B0" unicode="&#xb0;" horiz-adv-x="1304" 
d="M652 1036q-142 0 -258 69t-185 185.5t-69 257.5q0 142 69 258t185 185t258 69t258 -69t185 -185t69 -258q0 -141 -69 -257.5t-185 -185.5t-258 -69zM652 1376q48 0 87 23t62 62.5t23 86.5q0 48 -23 87t-62 62t-87 23q-47 0 -86.5 -23t-62.5 -62t-23 -87q0 -47 23 -86.5
t62.5 -62.5t86.5 -23z" />
    <glyph glyph-name="uni00B1" unicode="&#xb1;" horiz-adv-x="1952" 
d="M232 64v416h1488v-416h-1488zM232 912v400h1488v-400h-1488zM752 608v1008h448v-1008h-448z" />
    <glyph glyph-name="uni00B2" unicode="&#xb2;" horiz-adv-x="1200" 
d="M112 1024v264l500 372q46 34 83 63.5t59 62t22 74.5q0 60 -52 90t-124 30q-78 0 -125 -34.5t-47 -109.5h-352q0 207 148.5 319.5t379.5 112.5q160 0 276.5 -54.5t180 -146t63.5 -203.5q0 -92 -38.5 -171t-118 -150t-203.5 -139l-124 -68v-12h484v-300h-1012z" />
    <glyph glyph-name="uni00B3" unicode="&#xb3;" horiz-adv-x="1268" 
d="M628 1008q-160 0 -284 47.5t-196 133t-76 199.5h376q6 -39 57 -57.5t123 -18.5t126 22.5t54 73.5q0 45 -52 74.5t-148 29.5h-168v272h168q81 0 126.5 29t45.5 71q0 45 -41 70.5t-107 25.5q-75 0 -126 -24t-54 -60h-352q2 110 73.5 194t192 131t270.5 47q152 0 264.5 -49
t174 -131t61.5 -180q0 -108 -75 -170t-177 -74v-12q144 -9 226 -78.5t82 -189.5q0 -112 -73.5 -196.5t-201 -132t-289.5 -47.5z" />
    <glyph glyph-name="uni00B4" unicode="&#xb4;" horiz-adv-x="1400" 
d="M516 1728l192 448h472l-300 -448h-364z" />
    <glyph glyph-name="uni00B5" unicode="&#xb5;" horiz-adv-x="1960" 
d="M140 -544v2080h552v-864q1 -71 37.5 -126.5t101.5 -86.5t150 -31q84 0 149 31t102 86.5t36 126.5v864h552v-1536h-524v212h-12q-35 -85 -116 -134.5t-187 -49.5q-107 0 -188.5 49.5t-116.5 134.5h-12v-756h-524z" />
    <glyph glyph-name="uni00B6" unicode="&#xb6;" horiz-adv-x="1736" 
d="M1292 1648h-336v-888h-120q-230 0 -388 83.5t-239 229t-81 331.5q0 184 81 329.5t239 230t388 84.5h456v-400zM1204 0v2048h400v-2048h-400z" />
    <glyph glyph-name="uni00B7" unicode="&#xb7;" horiz-adv-x="880" 
d="M440 618q-116 0 -198.5 81.5t-81.5 198.5q-1 114 81.5 195t198.5 81q110 0 194.5 -81t85.5 -195q-1 -78 -40.5 -141.5t-102.5 -101t-137 -37.5z" />
    <glyph glyph-name="uni00B8" unicode="&#xb8;" horiz-adv-x="1256" 
d="M532 8h196l-16 -92q119 -18 185 -84t67 -164q2 -162 -158.5 -255t-441.5 -93v212q148 0 226 31.5t82 92.5q4 56 -43.5 92.5t-144.5 51.5z" />
    <glyph glyph-name="uni00B9" unicode="&#xb9;" horiz-adv-x="918" 
d="M382 1024v908h-6l-280 -168v296l314 192h320v-1228h-348z" />
    <glyph glyph-name="uni00BA" unicode="&#xba;" horiz-adv-x="1432" 
d="M216 1436v104q0 144 61.5 255t174 174t264.5 63q231 0 365.5 -138t134.5 -354v-104q0 -142 -60 -252t-171 -173t-265 -63q-234 0 -369 137.5t-135 350.5zM468 1540v-104q0 -123 63 -203.5t189 -80.5q123 0 183.5 80.5t60.5 203.5v104q0 120 -61 204t-187 84
q-123 0 -185.5 -84t-62.5 -204z" />
    <glyph glyph-name="uni00BB" unicode="&#xbb;" horiz-adv-x="1940" 
d="M112 220l384 620h524v-20l-404 -600h-504zM112 1448h504l404 -600v-20h-524zM884 220l384 620h524v-20l-404 -600h-504zM884 1448h504l404 -600v-20h-524z" />
    <glyph glyph-name="uni00BC" unicode="&#xbc;" horiz-adv-x="2468" 
d="M308 0l1408 2048h284l-1408 -2048h-284zM340 960v794h-6l-258 -156v274l290 176h294v-1088h-320zM1340 160v260l496 668h220v-344h-124l-264 -308v-12h744v-264h-1072zM1940 0v236l4 120v732h304v-1088h-308z" />
    <glyph glyph-name="uni00BD" unicode="&#xbd;" horiz-adv-x="2560" 
d="M308 0l1408 2048h284l-1408 -2048h-284zM340 960v794h-6l-258 -156v274l290 176h294v-1088h-320zM1596 0v232l452 332q54 39 101 79t47 97q0 54 -47.5 79t-116.5 25q-72 0 -114 -29t-42 -95h-308q0 183 134 283.5t338 100.5q210 0 335 -105t125 -255q0 -84 -36 -154.5
t-108 -132t-180 -117.5l-116 -60v-12h432v-268h-896z" />
    <glyph glyph-name="uni00BE" unicode="&#xbe;" horiz-adv-x="2748" 
d="M588 0l1408 2048h284l-1408 -2048h-284zM1620 160v260l496 668h220v-344h-124l-264 -308v-12h744v-264h-1072zM2220 0v236l4 120v732h304v-1088h-308zM568 944q-152 0 -262.5 44t-172 119t-65.5 169h332q6 -33 49.5 -49.5t106.5 -16.5q75 0 127.5 22t52.5 64
q0 39 -45.5 65.5t-138.5 26.5h-160v248h160q69 0 110.5 24t41.5 64q0 39 -36 62.5t-104 23.5q-59 0 -106.5 -18.5t-53.5 -51.5h-312q4 96 69.5 169t174 114t240.5 41q134 0 234 -44t155 -117t55 -159q0 -87 -60 -145.5t-156 -70.5v-12q132 -9 200 -73.5t68 -166.5
q0 -98 -67 -173t-181 -117t-256 -42z" />
    <glyph glyph-name="uni00BF" unicode="&#xbf;" horiz-adv-x="1688" 
d="M1144 864v-48q0 -164 -26 -262.5t-76.5 -157.5t-125.5 -108q-63 -42 -114 -81t-80.5 -83t-29.5 -100q0 -50 24 -88t65 -59t91 -21q54 0 99.5 25t73 69.5t27.5 101.5h512q-2 -220 -100 -357.5t-259.5 -202t-356.5 -64.5q-213 0 -381.5 62.5t-265.5 188t-97 313.5
q0 122 41.5 213t115.5 160.5t171 126.5q73 43 121.5 87t73.5 101t25 136v48h472zM900 1536q116 0 199 -81.5t81 -198.5q2 -114 -81 -195t-199 -81q-110 0 -194 81t-86 195q1 78 40.5 141.5t103 101t136.5 37.5z" />
    <glyph glyph-name="uni00C0" unicode="&#xc0;" horiz-adv-x="2240" 
d="M664 0h-600l676 2048h760l676 -2048h-600l-448 1484h-16zM552 808h1128v-416h-1128v416zM940 2240l-300 448h472l192 -448h-364z" />
    <glyph glyph-name="uni00C1" unicode="&#xc1;" horiz-adv-x="2240" 
d="M664 0h-600l676 2048h760l676 -2048h-600l-448 1484h-16zM552 808h1128v-416h-1128v416zM936 2240l192 448h472l-300 -448h-364z" />
    <glyph glyph-name="uni00C2" unicode="&#xc2;" horiz-adv-x="2240" 
d="M664 0h-600l676 2048h760l676 -2048h-600l-448 1484h-16zM552 808h1128v-416h-1128v416zM1316 2232l-196 220l-196 -220h-456v12l460 456h384l460 -456v-12h-456z" />
    <glyph glyph-name="uni00C3" unicode="&#xc3;" horiz-adv-x="2240" 
d="M664 0h-600l676 2048h760l676 -2048h-600l-448 1484h-16zM552 808h1128v-416h-1128v416zM848 2248h-272q0 216 99 321.5t241 106.5q78 0 132.5 -24.5t95.5 -57.5t74.5 -57.5t69.5 -24.5q58 1 82.5 42t25.5 114h268q-3 -212 -101.5 -321t-238.5 -111q-78 -1 -132.5 24
t-94 57.5t-73.5 57.5t-72 25q-48 0 -76 -38.5t-28 -113.5z" />
    <glyph glyph-name="uni00C4" unicode="&#xc4;" horiz-adv-x="2240" 
d="M664 0h-600l676 2048h760l676 -2048h-600l-448 1484h-16zM552 808h1128v-416h-1128v416zM804 2228q-102 0 -173 68t-71 164t71 164t173 68q99 0 169.5 -68t70.5 -164t-70.5 -164t-169.5 -68zM1440 2228q-102 0 -173 68t-71 164t71 164t173 68q99 0 169.5 -68t70.5 -164
t-70.5 -164t-169.5 -68z" />
    <glyph glyph-name="uni00C5" unicode="&#xc5;" horiz-adv-x="2240" 
d="M664 0h-600l676 2048h760l676 -2048h-600l-448 1484h-16zM552 808h1128v-416h-1128v416zM1120 2152q-133 0 -226.5 90.5t-93.5 217.5q0 85 43 155t116 111.5t161 41.5q89 0 161.5 -41.5t115.5 -111.5t43 -155t-43 -155t-115.5 -111.5t-161.5 -41.5zM1120 2340q52 1 90 36
t38 85q0 49 -37.5 84.5t-90.5 34.5q-52 -1 -90 -35.5t-38 -84.5q0 -49 37.5 -85t90.5 -35z" />
    <glyph glyph-name="uni00C6" unicode="&#xc6;" horiz-adv-x="2976" 
d="M64 0l800 2048h1968v-448h-920v-352h844v-448h-844v-352h916v-448h-1472v1484h-140l-540 -1484h-612zM556 392v416h1128v-416h-1128z" />
    <glyph glyph-name="uni00C7" unicode="&#xc7;" horiz-adv-x="2164" 
d="M2044 1280h-564q-6 70 -31.5 127t-70 98.5t-107.5 64t-143 22.5q-140 0 -236.5 -68t-146 -195t-49.5 -305q0 -188 50.5 -314.5t146.5 -190t231 -63.5q77 0 138 19.5t106 56.5t73.5 89.5t38.5 118.5l564 -4q-10 -130 -73 -264.5t-178.5 -248t-285.5 -182.5t-395 -69
q-282 0 -505.5 121t-353 356t-129.5 575q0 342 132 576.5t356 355t500 120.5q194 0 357 -53t286 -154.5t198 -249.5t91 -339zM1004 16h196l-16 -92q119 -18 185 -84t67 -164q2 -162 -158.5 -255t-441.5 -93v212q148 0 226 31.5t82 92.5q4 56 -43.5 92.5t-144.5 51.5z" />
    <glyph glyph-name="uni00C8" unicode="&#xc8;" horiz-adv-x="1752" 
d="M132 0v2048h1476v-448h-920v-352h844v-448h-844v-352h916v-448h-1472zM696 2240l-300 448h472l192 -448h-364z" />
    <glyph glyph-name="uni00C9" unicode="&#xc9;" horiz-adv-x="1752" 
d="M132 0v2048h1476v-448h-920v-352h844v-448h-844v-352h916v-448h-1472zM692 2240l192 448h472l-300 -448h-364z" />
    <glyph glyph-name="uni00CA" unicode="&#xca;" horiz-adv-x="1752" 
d="M132 0v2048h1476v-448h-920v-352h844v-448h-844v-352h916v-448h-1472zM1072 2232l-196 220l-196 -220h-456v12l460 456h384l460 -456v-12h-456z" />
    <glyph glyph-name="uni00CB" unicode="&#xcb;" horiz-adv-x="1752" 
d="M132 0v2048h1476v-448h-920v-352h844v-448h-844v-352h916v-448h-1472zM560 2228q-102 0 -173 68t-71 164t71 164t173 68q99 0 169.5 -68t70.5 -164t-70.5 -164t-169.5 -68zM1196 2228q-102 0 -173 68t-71 164t71 164t173 68q99 0 169.5 -68t70.5 -164t-70.5 -164
t-169.5 -68z" />
    <glyph glyph-name="uni00CC" unicode="&#xcc;" horiz-adv-x="820" 
d="M688 2048v-2048h-556v2048h556zM232 2240l-300 448h472l192 -448h-364z" />
    <glyph glyph-name="uni00CD" unicode="&#xcd;" horiz-adv-x="820" 
d="M688 2048v-2048h-556v2048h556zM228 2240l192 448h472l-300 -448h-364z" />
    <glyph glyph-name="uni00CE" unicode="&#xce;" horiz-adv-x="820" 
d="M688 2048v-2048h-556v2048h556zM608 2232l-196 220l-196 -220h-456v12l460 456h384l460 -456v-12h-456z" />
    <glyph glyph-name="uni00CF" unicode="&#xcf;" horiz-adv-x="820" 
d="M688 2048v-2048h-556v2048h556zM96 2228q-102 0 -173 68t-71 164t71 164t173 68q99 0 169.5 -68t70.5 -164t-70.5 -164t-169.5 -68zM732 2228q-102 0 -173 68t-71 164t71 164t173 68q99 0 169.5 -68t70.5 -164t-70.5 -164t-169.5 -68z" />
    <glyph glyph-name="uni00D0" unicode="&#xd0;" horiz-adv-x="2064" 
d="M920 0h-560v472h540q152 0 259.5 49t164 169t56.5 334t-57.5 334t-168 169t-270.5 49h-532v472h560q316 0 546.5 -122.5t356 -352t125.5 -549.5t-125 -549.5t-354 -352t-541 -122.5zM688 2048v-2048h-556v2048h556zM-132 948v296h1076v-296h-1076z" />
    <glyph glyph-name="uni00D1" unicode="&#xd1;" horiz-adv-x="2036" 
d="M1904 2048v-2048h-464l-740 1076h-12v-1076h-556v2048h472l728 -1072h16v1072h556zM748 2240h-272q0 216 99 321.5t241 106.5q78 0 132.5 -24.5t95.5 -57.5t74.5 -57.5t69.5 -24.5q58 1 82.5 42t25.5 114h268q-3 -212 -101.5 -321t-238.5 -111q-78 -1 -132.5 24t-94 57.5
t-73.5 57.5t-72 25q-48 0 -76 -38.5t-28 -113.5z" />
    <glyph glyph-name="uni00D2" unicode="&#xd2;" horiz-adv-x="2240" 
d="M2116 1024q0 -342 -133 -576.5t-359 -355t-504 -120.5q-280 0 -505.5 121.5t-358 356t-132.5 574.5q0 342 132.5 576.5t358 355t505.5 120.5q278 0 504 -120.5t359 -355t133 -576.5zM1544 1024q0 184 -48.5 310.5t-143 192t-232.5 65.5t-232.5 -65.5t-143 -192
t-48.5 -310.5t48.5 -310.5t143 -192t232.5 -65.5t232.5 65.5t143 192t48.5 310.5zM940 2240l-300 448h472l192 -448h-364z" />
    <glyph glyph-name="uni00D3" unicode="&#xd3;" horiz-adv-x="2240" 
d="M2116 1024q0 -342 -133 -576.5t-359 -355t-504 -120.5q-280 0 -505.5 121.5t-358 356t-132.5 574.5q0 342 132.5 576.5t358 355t505.5 120.5q278 0 504 -120.5t359 -355t133 -576.5zM1544 1024q0 184 -48.5 310.5t-143 192t-232.5 65.5t-232.5 -65.5t-143 -192
t-48.5 -310.5t48.5 -310.5t143 -192t232.5 -65.5t232.5 65.5t143 192t48.5 310.5zM936 2240l192 448h472l-300 -448h-364z" />
    <glyph glyph-name="uni00D4" unicode="&#xd4;" horiz-adv-x="2240" 
d="M2116 1024q0 -342 -133 -576.5t-359 -355t-504 -120.5q-280 0 -505.5 121.5t-358 356t-132.5 574.5q0 342 132.5 576.5t358 355t505.5 120.5q278 0 504 -120.5t359 -355t133 -576.5zM1544 1024q0 184 -48.5 310.5t-143 192t-232.5 65.5t-232.5 -65.5t-143 -192
t-48.5 -310.5t48.5 -310.5t143 -192t232.5 -65.5t232.5 65.5t143 192t48.5 310.5zM1316 2232l-196 220l-196 -220h-456v12l460 456h384l460 -456v-12h-456z" />
    <glyph glyph-name="uni00D5" unicode="&#xd5;" horiz-adv-x="2240" 
d="M2116 1024q0 -342 -133 -576.5t-359 -355t-504 -120.5q-280 0 -505.5 121.5t-358 356t-132.5 574.5q0 342 132.5 576.5t358 355t505.5 120.5q278 0 504 -120.5t359 -355t133 -576.5zM1544 1024q0 184 -48.5 310.5t-143 192t-232.5 65.5t-232.5 -65.5t-143 -192
t-48.5 -310.5t48.5 -310.5t143 -192t232.5 -65.5t232.5 65.5t143 192t48.5 310.5zM848 2248h-272q0 216 99 321.5t241 106.5q78 0 132.5 -24.5t95.5 -57.5t74.5 -57.5t69.5 -24.5q58 1 82.5 42t25.5 114h268q-3 -212 -101.5 -321t-238.5 -111q-78 -1 -132.5 24t-94 57.5
t-73.5 57.5t-72 25q-48 0 -76 -38.5t-28 -113.5z" />
    <glyph glyph-name="uni00D6" unicode="&#xd6;" horiz-adv-x="2240" 
d="M2116 1024q0 -342 -133 -576.5t-359 -355t-504 -120.5q-280 0 -505.5 121.5t-358 356t-132.5 574.5q0 342 132.5 576.5t358 355t505.5 120.5q278 0 504 -120.5t359 -355t133 -576.5zM1544 1024q0 184 -48.5 310.5t-143 192t-232.5 65.5t-232.5 -65.5t-143 -192
t-48.5 -310.5t48.5 -310.5t143 -192t232.5 -65.5t232.5 65.5t143 192t48.5 310.5zM804 2228q-102 0 -173 68t-71 164t71 164t173 68q99 0 169.5 -68t70.5 -164t-70.5 -164t-169.5 -68zM1440 2228q-102 0 -173 68t-71 164t71 164t173 68q99 0 169.5 -68t70.5 -164t-70.5 -164
t-169.5 -68z" />
    <glyph glyph-name="uni00D7" unicode="&#xd7;" horiz-adv-x="1952" 
d="M1428 44l-1240 1236l336 340l1240 -1240zM524 44l-336 336l1240 1240l336 -340z" />
    <glyph glyph-name="uni00D8" unicode="&#xd8;" horiz-adv-x="2240" 
d="M484 -108l-224 152l1496 2108l224 -152zM2116 1024q0 -342 -133 -576.5t-359 -355t-504 -120.5q-280 0 -505.5 121.5t-358 356t-132.5 574.5q0 342 132.5 576.5t358 355t505.5 120.5q278 0 504 -120.5t359 -355t133 -576.5zM1544 1024q0 184 -48.5 310.5t-143 192
t-232.5 65.5t-232.5 -65.5t-143 -192t-48.5 -310.5t48.5 -310.5t143 -192t232.5 -65.5t232.5 65.5t143 192t48.5 310.5z" />
    <glyph glyph-name="uni00D9" unicode="&#xd9;" horiz-adv-x="2032" 
d="M1344 2048h556v-1312q0 -234 -111.5 -404.5t-310.5 -263t-462 -92.5q-265 0 -464 92.5t-309.5 263t-110.5 404.5v1312h556v-1264q0 -95 42 -169.5t116.5 -116.5t169.5 -42q96 0 170 42t116 116.5t42 169.5v1264zM836 2240l-300 448h472l192 -448h-364z" />
    <glyph glyph-name="uni00DA" unicode="&#xda;" horiz-adv-x="2032" 
d="M1344 2048h556v-1312q0 -234 -111.5 -404.5t-310.5 -263t-462 -92.5q-265 0 -464 92.5t-309.5 263t-110.5 404.5v1312h556v-1264q0 -95 42 -169.5t116.5 -116.5t169.5 -42q96 0 170 42t116 116.5t42 169.5v1264zM832 2240l192 448h472l-300 -448h-364z" />
    <glyph glyph-name="uni00DB" unicode="&#xdb;" horiz-adv-x="2032" 
d="M1344 2048h556v-1312q0 -234 -111.5 -404.5t-310.5 -263t-462 -92.5q-265 0 -464 92.5t-309.5 263t-110.5 404.5v1312h556v-1264q0 -95 42 -169.5t116.5 -116.5t169.5 -42q96 0 170 42t116 116.5t42 169.5v1264zM1212 2232l-196 220l-196 -220h-456v12l460 456h384
l460 -456v-12h-456z" />
    <glyph glyph-name="uni00DC" unicode="&#xdc;" horiz-adv-x="2032" 
d="M1344 2048h556v-1312q0 -234 -111.5 -404.5t-310.5 -263t-462 -92.5q-265 0 -464 92.5t-309.5 263t-110.5 404.5v1312h556v-1264q0 -95 42 -169.5t116.5 -116.5t169.5 -42q96 0 170 42t116 116.5t42 169.5v1264zM700 2228q-102 0 -173 68t-71 164t71 164t173 68
q99 0 169.5 -68t70.5 -164t-70.5 -164t-169.5 -68zM1336 2228q-102 0 -173 68t-71 164t71 164t173 68q99 0 169.5 -68t70.5 -164t-70.5 -164t-169.5 -68z" />
    <glyph glyph-name="uni00DD" unicode="&#xdd;" horiz-adv-x="2152" 
d="M48 2048h620l400 -832h16l400 832h620l-752 -1404v-644h-552v644zM892 2240l192 448h472l-300 -448h-364z" />
    <glyph glyph-name="uni00DE" unicode="&#xde;" horiz-adv-x="1964" 
d="M136 2048h556v-2048h-556v2048zM392 1704h536q266 0 450 -83t279 -230t95 -339t-95 -338t-279 -228t-450 -82h-536v408h536q110 0 174 36.5t91 91t27 108.5q0 56 -27 112.5t-91 94t-174 37.5h-536v412z" />
    <glyph glyph-name="uni00DF" unicode="&#xdf;" horiz-adv-x="1972" 
d="M132 0v1496q0 181 95 311t270.5 199.5t414.5 69.5q219 0 405.5 -62t300.5 -188.5t114 -321.5q0 -148 -71.5 -256t-204.5 -140v-24q203 -10 316.5 -156.5t111.5 -363.5q-1 -191 -91 -316t-247.5 -186.5t-361.5 -61.5h-300v432h184q78 0 136 24t89.5 69t30.5 107
q-1 95 -78 147.5t-210 52.5h-144v404h92q54 0 94 24.5t62.5 67t23.5 96.5q2 92 -59.5 148t-172.5 56q-115 0 -181.5 -63t-66.5 -173v-1392h-552z" />
    <glyph glyph-name="uni00E0" unicode="&#xe0;" horiz-adv-x="1664" 
d="M568 -24q-147 0 -259.5 48.5t-176.5 147.5t-64 252q0 126 43 215.5t120 146.5t179.5 87t221.5 39q129 10 207.5 24.5t113.5 41t35 70.5v4q0 60 -46 92t-118 32q-79 0 -128.5 -34.5t-59.5 -105.5h-508q10 140 89.5 258.5t232.5 190t382 71.5q165 0 296 -38.5t223 -107
t140.5 -160t48.5 -198.5v-1052h-516v216h-12q-46 -86 -111.5 -139t-149 -77t-183.5 -24zM748 324q63 0 118.5 26t90.5 75t35 119v128q-22 -9 -46.5 -17t-52 -15t-58 -13t-63.5 -11q-64 -10 -104.5 -32.5t-60 -55t-19.5 -72.5q0 -64 45 -98t115 -34zM668 1728l-300 448h472
l192 -448h-364z" />
    <glyph glyph-name="uni00E1" unicode="&#xe1;" horiz-adv-x="1664" 
d="M568 -24q-147 0 -259.5 48.5t-176.5 147.5t-64 252q0 126 43 215.5t120 146.5t179.5 87t221.5 39q129 10 207.5 24.5t113.5 41t35 70.5v4q0 60 -46 92t-118 32q-79 0 -128.5 -34.5t-59.5 -105.5h-508q10 140 89.5 258.5t232.5 190t382 71.5q165 0 296 -38.5t223 -107
t140.5 -160t48.5 -198.5v-1052h-516v216h-12q-46 -86 -111.5 -139t-149 -77t-183.5 -24zM748 324q63 0 118.5 26t90.5 75t35 119v128q-22 -9 -46.5 -17t-52 -15t-58 -13t-63.5 -11q-64 -10 -104.5 -32.5t-60 -55t-19.5 -72.5q0 -64 45 -98t115 -34zM664 1728l192 448h472
l-300 -448h-364z" />
    <glyph glyph-name="uni00E2" unicode="&#xe2;" horiz-adv-x="1664" 
d="M568 -24q-147 0 -259.5 48.5t-176.5 147.5t-64 252q0 126 43 215.5t120 146.5t179.5 87t221.5 39q129 10 207.5 24.5t113.5 41t35 70.5v4q0 60 -46 92t-118 32q-79 0 -128.5 -34.5t-59.5 -105.5h-508q10 140 89.5 258.5t232.5 190t382 71.5q165 0 296 -38.5t223 -107
t140.5 -160t48.5 -198.5v-1052h-516v216h-12q-46 -86 -111.5 -139t-149 -77t-183.5 -24zM748 324q63 0 118.5 26t90.5 75t35 119v128q-22 -9 -46.5 -17t-52 -15t-58 -13t-63.5 -11q-64 -10 -104.5 -32.5t-60 -55t-19.5 -72.5q0 -64 45 -98t115 -34zM1044 1720l-196 220
l-196 -220h-456v12l460 456h384l460 -456v-12h-456z" />
    <glyph glyph-name="uni00E3" unicode="&#xe3;" horiz-adv-x="1664" 
d="M568 -24q-147 0 -259.5 48.5t-176.5 147.5t-64 252q0 126 43 215.5t120 146.5t179.5 87t221.5 39q129 10 207.5 24.5t113.5 41t35 70.5v4q0 60 -46 92t-118 32q-79 0 -128.5 -34.5t-59.5 -105.5h-508q10 140 89.5 258.5t232.5 190t382 71.5q165 0 296 -38.5t223 -107
t140.5 -160t48.5 -198.5v-1052h-516v216h-12q-46 -86 -111.5 -139t-149 -77t-183.5 -24zM748 324q63 0 118.5 26t90.5 75t35 119v128q-22 -9 -46.5 -17t-52 -15t-58 -13t-63.5 -11q-64 -10 -104.5 -32.5t-60 -55t-19.5 -72.5q0 -64 45 -98t115 -34zM576 1728h-272
q0 216 99 321.5t241 106.5q78 0 132.5 -24.5t95.5 -57.5t74.5 -57.5t69.5 -24.5q58 1 82.5 42t25.5 114h268q-3 -212 -101.5 -321t-238.5 -111q-78 -1 -132.5 24t-94 57.5t-73.5 57.5t-72 25q-48 0 -76 -38.5t-28 -113.5z" />
    <glyph glyph-name="uni00E4" unicode="&#xe4;" horiz-adv-x="1664" 
d="M568 -24q-147 0 -259.5 48.5t-176.5 147.5t-64 252q0 126 43 215.5t120 146.5t179.5 87t221.5 39q129 10 207.5 24.5t113.5 41t35 70.5v4q0 60 -46 92t-118 32q-79 0 -128.5 -34.5t-59.5 -105.5h-508q10 140 89.5 258.5t232.5 190t382 71.5q165 0 296 -38.5t223 -107
t140.5 -160t48.5 -198.5v-1052h-516v216h-12q-46 -86 -111.5 -139t-149 -77t-183.5 -24zM748 324q63 0 118.5 26t90.5 75t35 119v128q-22 -9 -46.5 -17t-52 -15t-58 -13t-63.5 -11q-64 -10 -104.5 -32.5t-60 -55t-19.5 -72.5q0 -64 45 -98t115 -34zM532 1716q-102 0 -173 68
t-71 164t71 164t173 68q99 0 169.5 -68t70.5 -164t-70.5 -164t-169.5 -68zM1168 1716q-102 0 -173 68t-71 164t71 164t173 68q99 0 169.5 -68t70.5 -164t-70.5 -164t-169.5 -68z" />
    <glyph glyph-name="uni00E5" unicode="&#xe5;" horiz-adv-x="1664" 
d="M568 -24q-147 0 -259.5 48.5t-176.5 147.5t-64 252q0 126 43 215.5t120 146.5t179.5 87t221.5 39q129 10 207.5 24.5t113.5 41t35 70.5v4q0 60 -46 92t-118 32q-79 0 -128.5 -34.5t-59.5 -105.5h-508q10 140 89.5 258.5t232.5 190t382 71.5q165 0 296 -38.5t223 -107
t140.5 -160t48.5 -198.5v-1052h-516v216h-12q-46 -86 -111.5 -139t-149 -77t-183.5 -24zM748 324q63 0 118.5 26t90.5 75t35 119v128q-22 -9 -46.5 -17t-52 -15t-58 -13t-63.5 -11q-64 -10 -104.5 -32.5t-60 -55t-19.5 -72.5q0 -64 45 -98t115 -34zM848 1696
q-90 0 -164.5 43.5t-119 116t-44.5 160.5t44.5 160.5t119 116t164.5 43.5t164.5 -43.5t119 -116t44.5 -160.5t-44.5 -160.5t-119 -116t-164.5 -43.5zM848 1892q55 1 93.5 37t38.5 87t-38.5 88t-93.5 36t-93.5 -37t-38.5 -87t38.5 -88t93.5 -36z" />
    <glyph glyph-name="uni00E6" unicode="&#xe6;" horiz-adv-x="2552" 
d="M1760 -28q-187 0 -341.5 71.5t-226.5 224.5l-52 996q108 162 248 227t316 65q174 0 315 -54t241 -156.5t154 -248.5t54 -329v-128h-1320v304h812q-2 66 -34.5 116.5t-87 79t-122.5 28.5t-123.5 -28.5t-89 -79t-35.5 -116.5v-328q0 -74 31 -132t89 -91t140 -33
q57 0 104.5 16t81.5 46.5t50 73.5h504q-26 -160 -123 -277.5t-247.5 -182t-337.5 -64.5zM748 324q63 0 118.5 26t90.5 75t35 119v128q-22 -9 -46.5 -17t-52 -15t-58 -13t-63.5 -11q-64 -10 -104.5 -32.5t-60 -55t-19.5 -72.5q0 -64 45 -98t115 -34zM608 -24
q-167 0 -288.5 48.5t-186.5 148t-65 251.5q0 126 43 215t120.5 146t180 87.5t220.5 39.5q130 10 208 25t113 41t35 70v4q0 61 -45.5 92.5t-118.5 31.5q-78 0 -128.5 -34t-59.5 -106h-508q10 140 89 258.5t234 190t393 71.5q77 0 141.5 -14t117.5 -40t92.5 -64t64.5 -86
l-24 -1120h-32q-48 -86 -139.5 -143t-209.5 -85t-247 -28z" />
    <glyph glyph-name="uni00E7" unicode="&#xe7;" horiz-adv-x="1708" 
d="M880 -28q-250 0 -428 99.5t-273 278t-95 414.5t95 414.5t273 278t428 99.5q226 0 391.5 -81.5t256.5 -230t92 -348.5h-512q-11 121 -69.5 184.5t-150.5 63.5q-72 0 -126 -41.5t-84 -125t-30 -209.5t30 -209.5t84 -125t126 -41.5q61 0 108 28.5t76.5 84t35.5 135.5h512
q-3 -203 -93 -353.5t-254.5 -232.5t-392.5 -82zM788 8h196l-16 -92q119 -18 185 -84t67 -164q2 -162 -158.5 -255t-441.5 -93v212q148 0 226 31.5t82 92.5q4 56 -43.5 92.5t-144.5 51.5z" />
    <glyph glyph-name="uni00E8" unicode="&#xe8;" horiz-adv-x="1712" 
d="M876 -28q-246 0 -423.5 94.5t-273 272t-95.5 425.5q0 238 96 416t271 277t413 99q174 0 315 -54t241 -156.5t154 -248.5t54 -329v-128h-1372v304h864q-1 66 -33.5 116.5t-87 79t-123.5 28.5q-67 0 -123 -28.5t-89.5 -78.5t-35.5 -117v-328q0 -74 31 -132t89 -91t140 -33
q57 0 104.5 16t81.5 46.5t50 73.5h504q-26 -160 -123 -277.5t-256.5 -182t-372.5 -64.5zM676 1728l-300 448h472l192 -448h-364z" />
    <glyph glyph-name="uni00E9" unicode="&#xe9;" horiz-adv-x="1712" 
d="M876 -28q-246 0 -423.5 94.5t-273 272t-95.5 425.5q0 238 96 416t271 277t413 99q174 0 315 -54t241 -156.5t154 -248.5t54 -329v-128h-1372v304h864q-1 66 -33.5 116.5t-87 79t-123.5 28.5q-67 0 -123 -28.5t-89.5 -78.5t-35.5 -117v-328q0 -74 31 -132t89 -91t140 -33
q57 0 104.5 16t81.5 46.5t50 73.5h504q-26 -160 -123 -277.5t-256.5 -182t-372.5 -64.5zM672 1728l192 448h472l-300 -448h-364z" />
    <glyph glyph-name="uni00EA" unicode="&#xea;" horiz-adv-x="1712" 
d="M876 -28q-246 0 -423.5 94.5t-273 272t-95.5 425.5q0 238 96 416t271 277t413 99q174 0 315 -54t241 -156.5t154 -248.5t54 -329v-128h-1372v304h864q-1 66 -33.5 116.5t-87 79t-123.5 28.5q-67 0 -123 -28.5t-89.5 -78.5t-35.5 -117v-328q0 -74 31 -132t89 -91t140 -33
q57 0 104.5 16t81.5 46.5t50 73.5h504q-26 -160 -123 -277.5t-256.5 -182t-372.5 -64.5zM1052 1720l-196 220l-196 -220h-456v12l460 456h384l460 -456v-12h-456z" />
    <glyph glyph-name="uni00EB" unicode="&#xeb;" horiz-adv-x="1712" 
d="M876 -28q-246 0 -423.5 94.5t-273 272t-95.5 425.5q0 238 96 416t271 277t413 99q174 0 315 -54t241 -156.5t154 -248.5t54 -329v-128h-1372v304h864q-1 66 -33.5 116.5t-87 79t-123.5 28.5q-67 0 -123 -28.5t-89.5 -78.5t-35.5 -117v-328q0 -74 31 -132t89 -91t140 -33
q57 0 104.5 16t81.5 46.5t50 73.5h504q-26 -160 -123 -277.5t-256.5 -182t-372.5 -64.5zM540 1716q-102 0 -173 68t-71 164t71 164t173 68q99 0 169.5 -68t70.5 -164t-70.5 -164t-169.5 -68zM1176 1716q-102 0 -173 68t-71 164t71 164t173 68q99 0 169.5 -68t70.5 -164
t-70.5 -164t-169.5 -68z" />
    <glyph glyph-name="uni00EC" unicode="&#xec;" horiz-adv-x="832" 
d="M140 0v1536h552v-1536h-552zM236 1728l-300 448h472l192 -448h-364z" />
    <glyph glyph-name="uni00ED" unicode="&#xed;" horiz-adv-x="832" 
d="M140 0v1536h552v-1536h-552zM232 1728l192 448h472l-300 -448h-364z" />
    <glyph glyph-name="uni00EE" unicode="&#xee;" horiz-adv-x="832" 
d="M140 0v1536h552v-1536h-552zM612 1720l-196 220l-196 -220h-456v12l460 456h384l460 -456v-12h-456z" />
    <glyph glyph-name="uni00EF" unicode="&#xef;" horiz-adv-x="832" 
d="M140 0v1536h552v-1536h-552zM100 1716q-102 0 -173 68t-71 164t71 164t173 68q99 0 169.5 -68t70.5 -164t-70.5 -164t-169.5 -68zM736 1716q-102 0 -173 68t-71 164t71 164t173 68q99 0 169.5 -68t70.5 -164t-70.5 -164t-169.5 -68z" />
    <glyph glyph-name="uni00F0" unicode="&#xf0;" horiz-adv-x="1726" 
d="M1296 1916l-1016 -532v224l1016 532v-224zM852 -32q-229 0 -402 91.5t-269.5 257t-96.5 387.5q0 194 76.5 354.5t218.5 256t337 95.5q78 0 145.5 -16t123.5 -45t99 -69h22q-79 154 -221 275t-304 204.5t-301 124.5v266q269 -35 514 -142.5t436 -280.5t301.5 -403.5
t110.5 -511.5q0 -251 -94.5 -441.5t-271.5 -296.5t-424 -106zM870 370q80 0 140 44.5t93 128.5t33 203q0 111 -30 189.5t-89.5 119.5t-146.5 41q-88 0 -147.5 -41.5t-89 -119.5t-29.5 -189q0 -118 33 -202t92.5 -129t140.5 -45z" />
    <glyph glyph-name="uni00F1" unicode="&#xf1;" horiz-adv-x="1820" 
d="M692 864v-864h-552v1536h524v-292h16q50 146 176.5 229t295.5 83q163 0 283.5 -74.5t187 -204.5t65.5 -297v-980h-552v864q1 114 -57.5 179t-162.5 65q-68 0 -118.5 -29.5t-77.5 -84t-28 -130.5zM640 1728h-272q0 216 99 321.5t241 106.5q78 0 132.5 -24.5t95.5 -57.5
t74.5 -57.5t69.5 -24.5q58 1 82.5 42t25.5 114h268q-3 -212 -101.5 -321t-238.5 -111q-78 -1 -132.5 24t-94 57.5t-73.5 57.5t-72 25q-48 0 -76 -38.5t-28 -113.5z" />
    <glyph glyph-name="uni00F2" unicode="&#xf2;" horiz-adv-x="1760" 
d="M880 -28q-250 0 -428 99.5t-273 278t-95 414.5t95 414.5t273 278t428 99.5t428 -99.5t273 -278t95 -414.5t-95 -414.5t-273 -278t-428 -99.5zM884 380q70 0 121 47t79 134t28 207q0 121 -28 207.5t-79 133.5t-121 47q-74 0 -127 -47t-81 -133.5t-28 -207.5
q0 -120 28 -207t81 -134t127 -47zM700 1728l-300 448h472l192 -448h-364z" />
    <glyph glyph-name="uni00F3" unicode="&#xf3;" horiz-adv-x="1760" 
d="M880 -28q-250 0 -428 99.5t-273 278t-95 414.5t95 414.5t273 278t428 99.5t428 -99.5t273 -278t95 -414.5t-95 -414.5t-273 -278t-428 -99.5zM884 380q70 0 121 47t79 134t28 207q0 121 -28 207.5t-79 133.5t-121 47q-74 0 -127 -47t-81 -133.5t-28 -207.5
q0 -120 28 -207t81 -134t127 -47zM696 1728l192 448h472l-300 -448h-364z" />
    <glyph glyph-name="uni00F4" unicode="&#xf4;" horiz-adv-x="1760" 
d="M880 -28q-250 0 -428 99.5t-273 278t-95 414.5t95 414.5t273 278t428 99.5t428 -99.5t273 -278t95 -414.5t-95 -414.5t-273 -278t-428 -99.5zM884 380q70 0 121 47t79 134t28 207q0 121 -28 207.5t-79 133.5t-121 47q-74 0 -127 -47t-81 -133.5t-28 -207.5
q0 -120 28 -207t81 -134t127 -47zM1076 1720l-196 220l-196 -220h-456v12l460 456h384l460 -456v-12h-456z" />
    <glyph glyph-name="uni00F5" unicode="&#xf5;" horiz-adv-x="1760" 
d="M880 -28q-250 0 -428 99.5t-273 278t-95 414.5t95 414.5t273 278t428 99.5t428 -99.5t273 -278t95 -414.5t-95 -414.5t-273 -278t-428 -99.5zM884 380q70 0 121 47t79 134t28 207q0 121 -28 207.5t-79 133.5t-121 47q-74 0 -127 -47t-81 -133.5t-28 -207.5
q0 -120 28 -207t81 -134t127 -47zM608 1728h-272q0 216 99 321.5t241 106.5q78 0 132.5 -24.5t95.5 -57.5t74.5 -57.5t69.5 -24.5q58 1 82.5 42t25.5 114h268q-3 -212 -101.5 -321t-238.5 -111q-78 -1 -132.5 24t-94 57.5t-73.5 57.5t-72 25q-48 0 -76 -38.5t-28 -113.5z
" />
    <glyph glyph-name="uni00F6" unicode="&#xf6;" horiz-adv-x="1760" 
d="M880 -28q-250 0 -428 99.5t-273 278t-95 414.5t95 414.5t273 278t428 99.5t428 -99.5t273 -278t95 -414.5t-95 -414.5t-273 -278t-428 -99.5zM884 380q70 0 121 47t79 134t28 207q0 121 -28 207.5t-79 133.5t-121 47q-74 0 -127 -47t-81 -133.5t-28 -207.5
q0 -120 28 -207t81 -134t127 -47zM564 1716q-102 0 -173 68t-71 164t71 164t173 68q99 0 169.5 -68t70.5 -164t-70.5 -164t-169.5 -68zM1200 1716q-102 0 -173 68t-71 164t71 164t173 68q99 0 169.5 -68t70.5 -164t-70.5 -164t-169.5 -68z" />
    <glyph glyph-name="uni00F7" unicode="&#xf7;" horiz-adv-x="1952" 
d="M1716 1040v-416h-1480v416h1480zM976 -32q-118 0 -201 83t-83 201q0 116 83 198t201 82q116 0 198 -82t82 -198q0 -118 -82 -201t-198 -83zM976 1132q-78 0 -142.5 38.5t-103 103t-38.5 142.5q0 117 83.5 198.5t200.5 81.5t198.5 -81.5t81.5 -198.5t-81.5 -200.5
t-198.5 -83.5z" />
    <glyph glyph-name="uni00F8" unicode="&#xf8;" horiz-adv-x="1760" 
d="M428 -108l-224 152l1124 1588l228 -152zM880 -32q-250 0 -428 99.5t-273 278t-95 414.5t95 414.5t273 278t428 99.5t428 -99.5t273 -278t95 -414.5t-95 -414.5t-273 -278t-428 -99.5zM884 376q70 0 121 47t79 134t28 207q0 121 -28 207.5t-79 133.5t-121 47
q-74 0 -127 -47t-81 -133.5t-28 -207.5q0 -120 28 -207t81 -134t127 -47z" />
    <glyph glyph-name="uni00F9" unicode="&#xf9;" horiz-adv-x="1828" 
d="M1136 672v864h552v-1536h-524v292h-16q-50 -147 -175 -229.5t-297 -82.5q-161 0 -281.5 74t-187 204t-67.5 298v980h552v-864q1 -114 58.5 -179t161.5 -65q69 0 119.5 29.5t78 84t26.5 130.5zM736 1728l-300 448h472l192 -448h-364z" />
    <glyph glyph-name="uni00FA" unicode="&#xfa;" horiz-adv-x="1828" 
d="M1136 672v864h552v-1536h-524v292h-16q-50 -147 -175 -229.5t-297 -82.5q-161 0 -281.5 74t-187 204t-67.5 298v980h552v-864q1 -114 58.5 -179t161.5 -65q69 0 119.5 29.5t78 84t26.5 130.5zM732 1728l192 448h472l-300 -448h-364z" />
    <glyph glyph-name="uni00FB" unicode="&#xfb;" horiz-adv-x="1828" 
d="M1136 672v864h552v-1536h-524v292h-16q-50 -147 -175 -229.5t-297 -82.5q-161 0 -281.5 74t-187 204t-67.5 298v980h552v-864q1 -114 58.5 -179t161.5 -65q69 0 119.5 29.5t78 84t26.5 130.5zM1112 1720l-196 220l-196 -220h-456v12l460 456h384l460 -456v-12h-456z" />
    <glyph glyph-name="uni00FC" unicode="&#xfc;" horiz-adv-x="1828" 
d="M1136 672v864h552v-1536h-524v292h-16q-50 -147 -175 -229.5t-297 -82.5q-161 0 -281.5 74t-187 204t-67.5 298v980h552v-864q1 -114 58.5 -179t161.5 -65q69 0 119.5 29.5t78 84t26.5 130.5zM600 1716q-102 0 -173 68t-71 164t71 164t173 68q99 0 169.5 -68t70.5 -164
t-70.5 -164t-169.5 -68zM1236 1716q-102 0 -173 68t-71 164t71 164t173 68q99 0 169.5 -68t70.5 -164t-70.5 -164t-169.5 -68z" />
    <glyph glyph-name="uni00FD" unicode="&#xfd;" horiz-adv-x="1704" 
d="M476 -576q-95 0 -181 14.5t-151 39.5l120 392q68 -24 124.5 -31t97 8t58.5 57l12 28l-540 1604h576l248 -1064h16l252 1064h580l-560 -1664q-42 -127 -121.5 -228.5t-208.5 -160.5t-322 -59zM664 1728l192 448h472l-300 -448h-364z" />
    <glyph glyph-name="uni00FE" unicode="&#xfe;" horiz-adv-x="1732" 
d="M140 2048h552v-736l-208 -584l208 -416v-888h-552v2624zM472 1404h236q27 62 78.5 95t118 45t135.5 12q149 0 286.5 -81t226 -255t87.5 -452q1 -268 -83.5 -442.5t-222 -260t-298.5 -85.5q-63 0 -128 9.5t-118 40t-82 94.5h-236v1280zM1124 768q1 122 -28.5 203t-88 121
t-147.5 40q-97 0 -148 -51t-69 -134t-19 -179q1 -92 17.5 -175.5t67 -136t151.5 -52.5q89 0 147.5 40t88 121t28.5 203z" />
    <glyph glyph-name="uni00FF" unicode="&#xff;" horiz-adv-x="1704" 
d="M476 -576q-95 0 -181 14.5t-151 39.5l120 392q68 -24 124.5 -31t97 8t58.5 57l12 28l-540 1604h576l248 -1064h16l252 1064h580l-560 -1664q-42 -127 -121.5 -228.5t-208.5 -160.5t-322 -59zM532 1716q-102 0 -173 68t-71 164t71 164t173 68q99 0 169.5 -68t70.5 -164
t-70.5 -164t-169.5 -68zM1168 1716q-102 0 -173 68t-71 164t71 164t173 68q99 0 169.5 -68t70.5 -164t-70.5 -164t-169.5 -68z" />
    <glyph glyph-name="uni0100" unicode="&#x100;" horiz-adv-x="2240" 
d="M664 0h-600l676 2048h760l676 -2048h-600l-448 1484h-16zM552 808h1128v-416h-1128v416zM1620 2560v-252h-1000v252h1000z" />
    <glyph glyph-name="uni0101" unicode="&#x101;" horiz-adv-x="1664" 
d="M568 -24q-147 0 -259.5 48.5t-176.5 147.5t-64 252q0 126 43 215.5t120 146.5t179.5 87t221.5 39q129 10 207.5 24.5t113.5 41t35 70.5v4q0 60 -46 92t-118 32q-79 0 -128.5 -34.5t-59.5 -105.5h-508q10 140 89.5 258.5t232.5 190t382 71.5q165 0 296 -38.5t223 -107
t140.5 -160t48.5 -198.5v-1052h-516v216h-12q-46 -86 -111.5 -139t-149 -77t-183.5 -24zM748 324q63 0 118.5 26t90.5 75t35 119v128q-22 -9 -46.5 -17t-52 -15t-58 -13t-63.5 -11q-64 -10 -104.5 -32.5t-60 -55t-19.5 -72.5q0 -64 45 -98t115 -34zM1348 2048v-252h-1000
v252h1000z" />
    <glyph glyph-name="uni0102" unicode="&#x102;" horiz-adv-x="2240" 
d="M664 0h-600l676 2048h760l676 -2048h-600l-448 1484h-16zM552 808h1128v-416h-1128v416zM1320 2600h348q-1 -195 -149 -311.5t-399 -116.5q-253 0 -401 116.5t-147 311.5h344q-1 -63 45.5 -115.5t158.5 -52.5q107 0 153 51t47 117z" />
    <glyph glyph-name="uni0103" unicode="&#x103;" horiz-adv-x="1664" 
d="M568 -24q-147 0 -259.5 48.5t-176.5 147.5t-64 252q0 126 43 215.5t120 146.5t179.5 87t221.5 39q129 10 207.5 24.5t113.5 41t35 70.5v4q0 60 -46 92t-118 32q-79 0 -128.5 -34.5t-59.5 -105.5h-508q10 140 89.5 258.5t232.5 190t382 71.5q165 0 296 -38.5t223 -107
t140.5 -160t48.5 -198.5v-1052h-516v216h-12q-46 -86 -111.5 -139t-149 -77t-183.5 -24zM748 324q63 0 118.5 26t90.5 75t35 119v128q-22 -9 -46.5 -17t-52 -15t-58 -13t-63.5 -11q-64 -10 -104.5 -32.5t-60 -55t-19.5 -72.5q0 -64 45 -98t115 -34zM1048 2088h348
q-1 -195 -149 -311.5t-399 -116.5q-253 0 -401 116.5t-147 311.5h344q-1 -63 45.5 -115.5t158.5 -52.5q107 0 153 51t47 117z" />
    <glyph glyph-name="uni0104" unicode="&#x104;" horiz-adv-x="2240" 
d="M664 0h-600l676 2048h760l676 -2048h-600l-448 1484h-16zM552 808h1128v-416h-1128v416zM1976 -556q-139 0 -234.5 69t-133.5 195q-26 86 -20.5 175t40 158t92.5 95l456 -136q-97 -30 -149 -65t-51 -95q-1 -51 25.5 -77.5t66.5 -26.5q26 0 45.5 6.5t38.5 9.5l64 -248
q-40 -21 -100 -40.5t-140 -19.5z" />
    <glyph glyph-name="uni0105" unicode="&#x105;" horiz-adv-x="1664" 
d="M568 -24q-147 0 -259.5 48.5t-176.5 147.5t-64 252q0 126 43 215.5t120 146.5t179.5 87t221.5 39q129 10 207.5 24.5t113.5 41t35 70.5v4q0 60 -46 92t-118 32q-79 0 -128.5 -34.5t-59.5 -105.5h-508q10 140 89.5 258.5t232.5 190t382 71.5q165 0 296 -38.5t223 -107
t140.5 -160t48.5 -198.5v-1052h-516v216h-12q-46 -86 -111.5 -139t-149 -77t-183.5 -24zM748 324q63 0 118.5 26t90.5 75t35 119v128q-22 -9 -46.5 -17t-52 -15t-58 -13t-63.5 -11q-64 -10 -104.5 -32.5t-60 -55t-19.5 -72.5q0 -64 45 -98t115 -34zM1340 -556
q-139 0 -234.5 69t-133.5 195q-26 86 -20.5 175t40 158t92.5 95l456 -136q-97 -30 -149 -65t-51 -95q-1 -51 25.5 -77.5t66.5 -26.5q26 0 45.5 6.5t38.5 9.5l64 -248q-40 -21 -100 -40.5t-140 -19.5z" />
    <glyph glyph-name="uni0106" unicode="&#x106;" horiz-adv-x="2164" 
d="M2044 1280h-564q-6 70 -31.5 127t-70 98.5t-107.5 64t-143 22.5q-140 0 -236.5 -68t-146 -195t-49.5 -305q0 -188 50.5 -314.5t146.5 -190t231 -63.5q77 0 138 19.5t106 56.5t73.5 89.5t38.5 118.5l564 -4q-10 -130 -73 -264.5t-178.5 -248t-285.5 -182.5t-395 -69
q-282 0 -505.5 121t-353 356t-129.5 575q0 342 132 576.5t356 355t500 120.5q194 0 357 -53t286 -154.5t198 -249.5t91 -339zM928 2240l192 448h472l-300 -448h-364z" />
    <glyph glyph-name="uni0107" unicode="&#x107;" horiz-adv-x="1708" 
d="M880 -28q-250 0 -428 99.5t-273 278t-95 414.5t95 414.5t273 278t428 99.5q226 0 391.5 -81.5t256.5 -230t92 -348.5h-512q-11 121 -69.5 184.5t-150.5 63.5q-72 0 -126 -41.5t-84 -125t-30 -209.5t30 -209.5t84 -125t126 -41.5q61 0 108 28.5t76.5 84t35.5 135.5h512
q-3 -203 -93 -353.5t-254.5 -232.5t-392.5 -82zM700 1728l192 448h472l-300 -448h-364z" />
    <glyph glyph-name="uni0108" unicode="&#x108;" horiz-adv-x="2164" 
d="M2044 1280h-564q-6 70 -31.5 127t-70 98.5t-107.5 64t-143 22.5q-140 0 -236.5 -68t-146 -195t-49.5 -305q0 -188 50.5 -314.5t146.5 -190t231 -63.5q77 0 138 19.5t106 56.5t73.5 89.5t38.5 118.5l564 -4q-10 -130 -73 -264.5t-178.5 -248t-285.5 -182.5t-395 -69
q-282 0 -505.5 121t-353 356t-129.5 575q0 342 132 576.5t356 355t500 120.5q194 0 357 -53t286 -154.5t198 -249.5t91 -339zM1308 2232l-196 220l-196 -220h-456v12l460 456h384l460 -456v-12h-456z" />
    <glyph glyph-name="uni0109" unicode="&#x109;" horiz-adv-x="1708" 
d="M880 -28q-250 0 -428 99.5t-273 278t-95 414.5t95 414.5t273 278t428 99.5q226 0 391.5 -81.5t256.5 -230t92 -348.5h-512q-11 121 -69.5 184.5t-150.5 63.5q-72 0 -126 -41.5t-84 -125t-30 -209.5t30 -209.5t84 -125t126 -41.5q61 0 108 28.5t76.5 84t35.5 135.5h512
q-3 -203 -93 -353.5t-254.5 -232.5t-392.5 -82zM1080 1720l-196 220l-196 -220h-456v12l460 456h384l460 -456v-12h-456z" />
    <glyph glyph-name="uni010A" unicode="&#x10a;" horiz-adv-x="2164" 
d="M2044 1280h-564q-6 70 -31.5 127t-70 98.5t-107.5 64t-143 22.5q-140 0 -236.5 -68t-146 -195t-49.5 -305q0 -188 50.5 -314.5t146.5 -190t231 -63.5q77 0 138 19.5t106 56.5t73.5 89.5t38.5 118.5l564 -4q-10 -130 -73 -264.5t-178.5 -248t-285.5 -182.5t-395 -69
q-282 0 -505.5 121t-353 356t-129.5 575q0 342 132 576.5t356 355t500 120.5q194 0 357 -53t286 -154.5t198 -249.5t91 -339zM1113 2208q-113 0 -193 74t-80 178t80 178t192 74q113 0 192.5 -74t79.5 -178t-79.5 -178t-191.5 -74z" />
    <glyph glyph-name="uni010B" unicode="&#x10b;" horiz-adv-x="1708" 
d="M880 -28q-250 0 -428 99.5t-273 278t-95 414.5t95 414.5t273 278t428 99.5q226 0 391.5 -81.5t256.5 -230t92 -348.5h-512q-11 121 -69.5 184.5t-150.5 63.5q-72 0 -126 -41.5t-84 -125t-30 -209.5t30 -209.5t84 -125t126 -41.5q61 0 108 28.5t76.5 84t35.5 135.5h512
q-3 -203 -93 -353.5t-254.5 -232.5t-392.5 -82zM885 1696q-113 0 -193 74t-80 178t80 178t192 74q113 0 192.5 -74t79.5 -178t-79.5 -178t-191.5 -74z" />
    <glyph glyph-name="uni010C" unicode="&#x10c;" horiz-adv-x="2164" 
d="M2044 1280h-564q-6 70 -31.5 127t-70 98.5t-107.5 64t-143 22.5q-140 0 -236.5 -68t-146 -195t-49.5 -305q0 -188 50.5 -314.5t146.5 -190t231 -63.5q77 0 138 19.5t106 56.5t73.5 89.5t38.5 118.5l564 -4q-10 -130 -73 -264.5t-178.5 -248t-285.5 -182.5t-395 -69
q-282 0 -505.5 121t-353 356t-129.5 575q0 342 132 576.5t356 355t500 120.5q194 0 357 -53t286 -154.5t198 -249.5t91 -339zM916 2700l196 -220l196 220h456v-12l-460 -456h-384l-460 456v12h456z" />
    <glyph glyph-name="uni010D" unicode="&#x10d;" horiz-adv-x="1708" 
d="M880 -28q-250 0 -428 99.5t-273 278t-95 414.5t95 414.5t273 278t428 99.5q226 0 391.5 -81.5t256.5 -230t92 -348.5h-512q-11 121 -69.5 184.5t-150.5 63.5q-72 0 -126 -41.5t-84 -125t-30 -209.5t30 -209.5t84 -125t126 -41.5q61 0 108 28.5t76.5 84t35.5 135.5h512
q-3 -203 -93 -353.5t-254.5 -232.5t-392.5 -82zM688 2188l196 -220l196 220h456v-12l-460 -456h-384l-460 456v12h456z" />
    <glyph glyph-name="uni010E" unicode="&#x10e;" horiz-adv-x="2064" 
d="M920 0h-788v2048h780q316 0 546.5 -122.5t356 -352t125.5 -549.5t-125 -549.5t-354 -352t-541 -122.5zM688 472h212q152 0 259.5 49t164 169t56.5 334t-57.5 334t-168 169t-270.5 49h-196v-1104zM620 2700l196 -220l196 220h456v-12l-460 -456h-384l-460 456v12h456z" />
    <glyph glyph-name="uni010F" unicode="&#x10f;" horiz-adv-x="2184" 
d="M696 -20q-164 0 -301.5 86t-220 261t-82.5 441q0 278 86.5 452t224 255t289.5 81q114 0 200 -39.5t144 -105t88 -143.5h8v780h552v-2048h-548v252h-12q-32 -78 -91.5 -139.5t-144 -97t-192.5 -35.5zM900 404q76 0 130.5 44.5t84 126t29.5 193.5q0 114 -29.5 195.5
t-84 125t-130.5 43.5t-129.5 -43.5t-82 -125t-28.5 -195.5t28.5 -195.5t82 -125t129.5 -43.5zM1844 1626v534h372l-74 -534h-298z" />
    <glyph glyph-name="uni0110" unicode="&#x110;" horiz-adv-x="2064" 
d="M920 0h-560v472h540q152 0 259.5 49t164 169t56.5 334t-57.5 334t-168 169t-270.5 49h-532v472h560q316 0 546.5 -122.5t356 -352t125.5 -549.5t-125 -549.5t-354 -352t-541 -122.5zM688 2048v-2048h-556v2048h556zM-132 948v296h1076v-296h-1076z" />
    <glyph glyph-name="uni0111" unicode="&#x111;" horiz-adv-x="1816" 
d="M696 -20q-164 0 -301.5 86t-220 261t-82.5 441q0 278 86.5 452t224 255t289.5 81q114 0 200 -39.5t144 -105t88 -143.5h8v780h552v-2048h-548v252h-12q-32 -78 -91.5 -139.5t-144 -97t-192.5 -35.5zM900 404q76 0 130.5 44.5t84 126t29.5 193.5q0 114 -29.5 195.5
t-84 125t-130.5 43.5t-129.5 -43.5t-82 -125t-28.5 -195.5t28.5 -195.5t82 -125t129.5 -43.5zM752 1624v296h1076v-296h-1076z" />
    <glyph glyph-name="uni0112" unicode="&#x112;" horiz-adv-x="1752" 
d="M132 0v2048h1476v-448h-920v-352h844v-448h-844v-352h916v-448h-1472zM1376 2560v-252h-1000v252h1000z" />
    <glyph glyph-name="uni0113" unicode="&#x113;" horiz-adv-x="1712" 
d="M876 -28q-246 0 -423.5 94.5t-273 272t-95.5 425.5q0 238 96 416t271 277t413 99q174 0 315 -54t241 -156.5t154 -248.5t54 -329v-128h-1372v304h864q-1 66 -33.5 116.5t-87 79t-123.5 28.5q-67 0 -123 -28.5t-89.5 -78.5t-35.5 -117v-328q0 -74 31 -132t89 -91t140 -33
q57 0 104.5 16t81.5 46.5t50 73.5h504q-26 -160 -123 -277.5t-256.5 -182t-372.5 -64.5zM1356 2048v-252h-1000v252h1000z" />
    <glyph glyph-name="uni0114" unicode="&#x114;" horiz-adv-x="1752" 
d="M132 0v2048h1476v-448h-920v-352h844v-448h-844v-352h916v-448h-1472zM1076 2600h348q-1 -195 -149 -311.5t-399 -116.5q-253 0 -401 116.5t-147 311.5h344q-1 -63 45.5 -115.5t158.5 -52.5q107 0 153 51t47 117z" />
    <glyph glyph-name="uni0115" unicode="&#x115;" horiz-adv-x="1712" 
d="M876 -28q-246 0 -423.5 94.5t-273 272t-95.5 425.5q0 238 96 416t271 277t413 99q174 0 315 -54t241 -156.5t154 -248.5t54 -329v-128h-1372v304h864q-1 66 -33.5 116.5t-87 79t-123.5 28.5q-67 0 -123 -28.5t-89.5 -78.5t-35.5 -117v-328q0 -74 31 -132t89 -91t140 -33
q57 0 104.5 16t81.5 46.5t50 73.5h504q-26 -160 -123 -277.5t-256.5 -182t-372.5 -64.5zM1056 2088h348q-1 -195 -149 -311.5t-399 -116.5q-253 0 -401 116.5t-147 311.5h344q-1 -63 45.5 -115.5t158.5 -52.5q107 0 153 51t47 117z" />
    <glyph glyph-name="uni0116" unicode="&#x116;" horiz-adv-x="1752" 
d="M132 0v2048h1476v-448h-920v-352h844v-448h-844v-352h916v-448h-1472zM877 2208q-113 0 -193 74t-80 178t80 178t192 74q113 0 192.5 -74t79.5 -178t-79.5 -178t-191.5 -74z" />
    <glyph glyph-name="uni0117" unicode="&#x117;" horiz-adv-x="1712" 
d="M876 -28q-246 0 -423.5 94.5t-273 272t-95.5 425.5q0 238 96 416t271 277t413 99q174 0 315 -54t241 -156.5t154 -248.5t54 -329v-128h-1372v304h864q-1 66 -33.5 116.5t-87 79t-123.5 28.5q-67 0 -123 -28.5t-89.5 -78.5t-35.5 -117v-328q0 -74 31 -132t89 -91t140 -33
q57 0 104.5 16t81.5 46.5t50 73.5h504q-26 -160 -123 -277.5t-256.5 -182t-372.5 -64.5zM857 1696q-113 0 -193 74t-80 178t80 178t192 74q113 0 192.5 -74t79.5 -178t-79.5 -178t-191.5 -74z" />
    <glyph glyph-name="uni0118" unicode="&#x118;" horiz-adv-x="1752" 
d="M132 0v2048h1476v-448h-920v-352h844v-448h-844v-352h916v-448h-1472zM1404 -556q-139 0 -234.5 69t-133.5 195q-26 86 -20.5 175t40 158t92.5 95l456 -136q-97 -30 -149 -65t-51 -95q-1 -51 25.5 -77.5t66.5 -26.5q26 0 45.5 6.5t38.5 9.5l64 -248q-40 -21 -100 -40.5
t-140 -19.5z" />
    <glyph glyph-name="uni0119" unicode="&#x119;" horiz-adv-x="1712" 
d="M876 -28q-246 0 -423.5 94.5t-273 272t-95.5 425.5q0 238 96 416t271 277t413 99q174 0 315 -54t241 -156.5t154 -248.5t54 -329v-128h-1372v304h864q-1 66 -33.5 116.5t-87 79t-123.5 28.5q-67 0 -123 -28.5t-89.5 -78.5t-35.5 -117v-328q0 -74 31 -132t89 -91t140 -33
q57 0 104.5 16t81.5 46.5t50 73.5h504q-26 -160 -123 -277.5t-256.5 -182t-372.5 -64.5zM1116 -488q-139 0 -234.5 69t-133.5 195q-26 86 -20.5 175t40 158t92.5 95l456 -136q-97 -30 -149 -65t-51 -95q-1 -51 25.5 -77.5t66.5 -26.5q26 0 45.5 6.5t38.5 9.5l64 -248
q-40 -21 -100 -40.5t-140 -19.5z" />
    <glyph glyph-name="uni011A" unicode="&#x11a;" horiz-adv-x="1752" 
d="M132 0v2048h1476v-448h-920v-352h844v-448h-844v-352h916v-448h-1472zM680 2700l196 -220l196 220h456v-12l-460 -456h-384l-460 456v12h456z" />
    <glyph glyph-name="uni011B" unicode="&#x11b;" horiz-adv-x="1712" 
d="M876 -28q-246 0 -423.5 94.5t-273 272t-95.5 425.5q0 238 96 416t271 277t413 99q174 0 315 -54t241 -156.5t154 -248.5t54 -329v-128h-1372v304h864q-1 66 -33.5 116.5t-87 79t-123.5 28.5q-67 0 -123 -28.5t-89.5 -78.5t-35.5 -117v-328q0 -74 31 -132t89 -91t140 -33
q57 0 104.5 16t81.5 46.5t50 73.5h504q-26 -160 -123 -277.5t-256.5 -182t-372.5 -64.5zM660 2188l196 -220l196 220h456v-12l-460 -456h-384l-460 456v12h456z" />
    <glyph glyph-name="uni011C" unicode="&#x11c;" horiz-adv-x="2176" 
d="M1462 1372q-13 53 -41 93.5t-69.5 69t-96 43t-119.5 14.5q-140 0 -238.5 -67t-150 -193t-51.5 -304q0 -180 49 -308t146 -196t241 -68q127 0 211.5 37t126.5 105t42 160l96 -10h-468v396h908v-284q0 -280 -118.5 -478.5t-326 -304t-475.5 -105.5q-299 0 -525 127
t-352.5 362t-126.5 559q0 254 77.5 450t215.5 331.5t319 205t388 69.5q182 0 338.5 -51.5t277 -146t194.5 -223.5t90 -283h-562zM1304 2232l-196 220l-196 -220h-456v12l460 456h384l460 -456v-12h-456z" />
    <glyph glyph-name="uni011D" unicode="&#x11d;" horiz-adv-x="1828" 
d="M880 -608q-231 0 -395.5 65.5t-255 180t-101.5 262.5h532q8 -49 40 -79t82.5 -43.5t113.5 -13.5q107 0 177.5 52t70.5 188v260h-16q-30 -78 -92 -132.5t-149 -83t-191 -28.5q-164 0 -301.5 76t-220 241t-82.5 431q0 278 86.5 452t224 255t289.5 81q114 0 200 -39.5
t144 -105t88 -143.5h12v268h552v-1532q0 -195 -100.5 -331.5t-282.5 -208.5t-425 -72zM900 412q76 0 130.5 42.5t84 122t29.5 191.5q0 114 -29.5 195.5t-84 125t-130.5 43.5t-129.5 -43.5t-82 -125t-28.5 -195.5t28.5 -193.5t82 -121t129.5 -41.5zM1076 1720l-196 220
l-196 -220h-456v12l460 456h384l460 -456v-12h-456z" />
    <glyph glyph-name="uni011E" unicode="&#x11e;" horiz-adv-x="2176" 
d="M1462 1372q-13 53 -41 93.5t-69.5 69t-96 43t-119.5 14.5q-140 0 -238.5 -67t-150 -193t-51.5 -304q0 -180 49 -308t146 -196t241 -68q127 0 211.5 37t126.5 105t42 160l96 -10h-468v396h908v-284q0 -280 -118.5 -478.5t-326 -304t-475.5 -105.5q-299 0 -525 127
t-352.5 362t-126.5 559q0 254 77.5 450t215.5 331.5t319 205t388 69.5q182 0 338.5 -51.5t277 -146t194.5 -223.5t90 -283h-562zM1308 2600h348q-1 -195 -149 -311.5t-399 -116.5q-253 0 -401 116.5t-147 311.5h344q-1 -63 45.5 -115.5t158.5 -52.5q107 0 153 51t47 117z
" />
    <glyph glyph-name="uni011F" unicode="&#x11f;" horiz-adv-x="1828" 
d="M880 -608q-231 0 -395.5 65.5t-255 180t-101.5 262.5h532q8 -49 40 -79t82.5 -43.5t113.5 -13.5q107 0 177.5 52t70.5 188v260h-16q-30 -78 -92 -132.5t-149 -83t-191 -28.5q-164 0 -301.5 76t-220 241t-82.5 431q0 278 86.5 452t224 255t289.5 81q114 0 200 -39.5
t144 -105t88 -143.5h12v268h552v-1532q0 -195 -100.5 -331.5t-282.5 -208.5t-425 -72zM900 412q76 0 130.5 42.5t84 122t29.5 191.5q0 114 -29.5 195.5t-84 125t-130.5 43.5t-129.5 -43.5t-82 -125t-28.5 -195.5t28.5 -193.5t82 -121t129.5 -41.5zM1080 2088h348
q-1 -195 -149 -311.5t-399 -116.5q-253 0 -401 116.5t-147 311.5h344q-1 -63 45.5 -115.5t158.5 -52.5q107 0 153 51t47 117z" />
    <glyph glyph-name="uni0120" unicode="&#x120;" horiz-adv-x="2176" 
d="M1462 1372q-13 53 -41 93.5t-69.5 69t-96 43t-119.5 14.5q-140 0 -238.5 -67t-150 -193t-51.5 -304q0 -180 49 -308t146 -196t241 -68q127 0 211.5 37t126.5 105t42 160l96 -10h-468v396h908v-284q0 -280 -118.5 -478.5t-326 -304t-475.5 -105.5q-299 0 -525 127
t-352.5 362t-126.5 559q0 254 77.5 450t215.5 331.5t319 205t388 69.5q182 0 338.5 -51.5t277 -146t194.5 -223.5t90 -283h-562zM1109 2208q-113 0 -193 74t-80 178t80 178t192 74q113 0 192.5 -74t79.5 -178t-79.5 -178t-191.5 -74z" />
    <glyph glyph-name="uni0121" unicode="&#x121;" horiz-adv-x="1828" 
d="M880 -608q-231 0 -395.5 65.5t-255 180t-101.5 262.5h532q8 -49 40 -79t82.5 -43.5t113.5 -13.5q107 0 177.5 52t70.5 188v260h-16q-30 -78 -92 -132.5t-149 -83t-191 -28.5q-164 0 -301.5 76t-220 241t-82.5 431q0 278 86.5 452t224 255t289.5 81q114 0 200 -39.5
t144 -105t88 -143.5h12v268h552v-1532q0 -195 -100.5 -331.5t-282.5 -208.5t-425 -72zM900 412q76 0 130.5 42.5t84 122t29.5 191.5q0 114 -29.5 195.5t-84 125t-130.5 43.5t-129.5 -43.5t-82 -125t-28.5 -195.5t28.5 -193.5t82 -121t129.5 -41.5zM881 1696q-113 0 -193 74
t-80 178t80 178t192 74q113 0 192.5 -74t79.5 -178t-79.5 -178t-191.5 -74z" />
    <glyph glyph-name="uni0122" unicode="&#x122;" horiz-adv-x="2176" 
d="M1462 1372q-13 53 -41 93.5t-69.5 69t-96 43t-119.5 14.5q-140 0 -238.5 -67t-150 -193t-51.5 -304q0 -180 49 -308t146 -196t241 -68q127 0 211.5 37t126.5 105t42 160l96 -10h-468v396h908v-284q0 -280 -118.5 -478.5t-326 -304t-475.5 -105.5q-299 0 -525 127
t-352.5 362t-126.5 559q0 254 77.5 450t215.5 331.5t319 205t388 69.5q182 0 338.5 -51.5t277 -146t194.5 -223.5t90 -283h-562zM730 -632l132 478h496l-252 -478h-376z" />
    <glyph glyph-name="uni0123" unicode="&#x123;" horiz-adv-x="1828" 
d="M880 -608q-231 0 -395.5 65.5t-255 180t-101.5 262.5h532q8 -49 40 -79t82.5 -43.5t113.5 -13.5q107 0 177.5 52t70.5 188v260h-16q-30 -78 -92 -132.5t-149 -83t-191 -28.5q-164 0 -301.5 76t-220 241t-82.5 431q0 278 86.5 452t224 255t289.5 81q114 0 200 -39.5
t144 -105t88 -143.5h12v268h552v-1532q0 -195 -100.5 -331.5t-282.5 -208.5t-425 -72zM900 412q76 0 130.5 42.5t84 122t29.5 191.5q0 114 -29.5 195.5t-84 125t-130.5 43.5t-129.5 -43.5t-82 -125t-28.5 -195.5t28.5 -193.5t82 -121t129.5 -41.5zM700 1756v200
q0 118 23.5 208.5t69 154t111.5 101.5l252 -96q-27 -42 -63.5 -147.5t-36.5 -240.5l-8 -180h-348z" />
    <glyph glyph-name="uni0124" unicode="&#x124;" horiz-adv-x="2112" 
d="M132 0v2048h556v-800h736v800h556v-2048h-556v800h-736v-800h-556zM1252 2232l-196 220l-196 -220h-456v12l460 456h384l460 -456v-12h-456z" />
    <glyph glyph-name="uni0125" unicode="&#x125;" horiz-adv-x="1820" 
d="M692 864v-864h-552v2048h532v-804h16q52 147 173 229.5t291 82.5q163 0 283.5 -74t187 -204t65.5 -298v-980h-552v864q1 114 -56.5 179t-163.5 65q-67 0 -117.5 -29.5t-78 -84t-28.5 -130.5zM604 2232l-196 220l-196 -220h-456v12l460 456h384l460 -456v-12h-456z" />
    <glyph glyph-name="uni0126" unicode="&#x126;" horiz-adv-x="2344" 
d="M2268 1744v-264h-2192v264h2192zM248 0v2048h556v-800h736v800h556v-2048h-556v800h-736v-800h-556z" />
    <glyph glyph-name="uni0127" unicode="&#x127;" horiz-adv-x="1820" 
d="M692 864v-864h-552v2048h532v-804h16q52 147 173 229.5t291 82.5q163 0 283.5 -74t187 -204t65.5 -298v-980h-552v864q1 114 -56.5 179t-163.5 65q-67 0 -117.5 -29.5t-78 -84t-28.5 -130.5zM-136 1612v296h1076v-296h-1076z" />
    <glyph glyph-name="uni0128" unicode="&#x128;" horiz-adv-x="1284" 
d="M916 2048v-2048h-556v2048h556zM368 2240h-272q0 216 99 321.5t241 106.5q78 0 132.5 -24.5t95.5 -57.5t74.5 -57.5t69.5 -24.5q58 1 82.5 42t25.5 114h268q-3 -212 -101.5 -321t-238.5 -111q-78 -1 -132.5 24t-94 57.5t-73.5 57.5t-72 25q-48 0 -76 -38.5t-28 -113.5z
" />
    <glyph glyph-name="uni0129" unicode="&#x129;" horiz-adv-x="832" 
d="M140 0v1536h552v-1536h-552zM144 1728h-272q0 216 99 321.5t241 106.5q78 0 132.5 -24.5t95.5 -57.5t74.5 -57.5t69.5 -24.5q58 1 82.5 42t25.5 114h268q-3 -212 -101.5 -321t-238.5 -111q-78 -1 -132.5 24t-94 57.5t-73.5 57.5t-72 25q-48 0 -76 -38.5t-28 -113.5z" />
    <glyph glyph-name="uni012A" unicode="&#x12a;" horiz-adv-x="820" 
d="M688 2048v-2048h-556v2048h556zM912 2560v-252h-1000v252h1000z" />
    <glyph glyph-name="uni012B" unicode="&#x12b;" horiz-adv-x="832" 
d="M140 0v1536h552v-1536h-552zM916 2048v-252h-1000v252h1000z" />
    <glyph glyph-name="uni012C" unicode="&#x12c;" horiz-adv-x="820" 
d="M688 2048v-2048h-556v2048h556zM612 2600h348q-1 -195 -149 -311.5t-399 -116.5q-253 0 -401 116.5t-147 311.5h344q-1 -63 45.5 -115.5t158.5 -52.5q107 0 153 51t47 117z" />
    <glyph glyph-name="uni012D" unicode="&#x12d;" horiz-adv-x="832" 
d="M140 0v1536h552v-1536h-552zM616 2088h348q-1 -195 -149 -311.5t-399 -116.5q-253 0 -401 116.5t-147 311.5h344q-1 -63 45.5 -115.5t158.5 -52.5q107 0 153 51t47 117z" />
    <glyph glyph-name="uni012E" unicode="&#x12e;" horiz-adv-x="820" 
d="M688 2048v-2048h-556v2048h556zM488 -556q-139 0 -234.5 69t-133.5 195q-26 86 -20.5 175t40 158t92.5 95l456 -136q-97 -30 -149 -65t-51 -95q-1 -51 25.5 -77.5t66.5 -26.5q26 0 45.5 6.5t38.5 9.5l64 -248q-40 -21 -100 -40.5t-140 -19.5z" />
    <glyph glyph-name="uni012F" unicode="&#x12f;" horiz-adv-x="872" 
d="M108 0v1536h552v-1536h-552zM460 -556q-139 0 -234.5 69t-133.5 195q-26 86 -20.5 175t40 158t92.5 95l456 -136q-97 -30 -149 -65t-51 -95q-1 -51 25.5 -77.5t66.5 -26.5q26 0 45.5 6.5t38.5 9.5l64 -248q-40 -21 -100 -40.5t-140 -19.5zM385 1696q-113 0 -193 74
t-80 178t80 178t192 74q113 0 192.5 -74t79.5 -178t-79.5 -178t-191.5 -74z" />
    <glyph glyph-name="uni0130" unicode="&#x130;" horiz-adv-x="820" 
d="M688 2048v-2048h-556v2048h556zM413 2208q-113 0 -193 74t-80 178t80 178t192 74q113 0 192.5 -74t79.5 -178t-79.5 -178t-191.5 -74z" />
    <glyph glyph-name="uni0131" unicode="&#x131;" horiz-adv-x="832" 
d="M140 0v1536h552v-1536h-552z" />
    <glyph glyph-name="uni0132" unicode="&#x132;" horiz-adv-x="2476" 
d="M688 2048v-2048h-556v2048h556zM1796 2048h548v-1404q-1 -200 -100.5 -351.5t-274 -236t-401.5 -84.5q-197 0 -360 68.5t-260 216t-96 383.5h556q3 -77 26.5 -130t66 -79.5t103.5 -26.5q62 0 104.5 27t64.5 80.5t23 132.5v1404z" />
    <glyph glyph-name="uni0133" unicode="&#x133;" horiz-adv-x="1664" 
d="M140 0v1536h552v-1536h-552zM417 1696q-113 0 -193 74t-80 178t80 178t192 74q113 0 192.5 -74t79.5 -178t-79.5 -178t-191.5 -74zM972 1536h552v-1588q0 -202 -84.5 -316t-236.5 -161t-355 -47q-30 0 -55.5 1t-56.5 3v408q20 -2 34.5 -3t29.5 -1q99 0 135.5 30.5
t36.5 97.5v1576zM1248 1696q-112 0 -192 74t-80 178t80 178t192 74q113 0 192.5 -74t79.5 -178t-79.5 -178t-192.5 -74z" />
    <glyph glyph-name="uni0134" unicode="&#x134;" horiz-adv-x="1656" 
d="M976 2048h548v-1404q-1 -200 -100.5 -351.5t-274 -236t-401.5 -84.5q-197 0 -360 68.5t-260 216t-96 383.5h556q3 -77 26.5 -130t66 -79.5t103.5 -26.5q62 0 104.5 27t64.5 80.5t23 132.5v1404zM1444 2232l-196 220l-196 -220h-456v12l460 456h384l460 -456v-12h-456z
" />
    <glyph glyph-name="uni0135" unicode="&#x135;" horiz-adv-x="832" 
d="M140 1536h552v-1588q0 -202 -84.5 -316t-236.5 -161t-355 -47q-30 0 -55.5 1t-56.5 3v408q20 -2 34.5 -3t29.5 -1q99 0 135.5 30.5t36.5 97.5v1576zM612 1720l-196 220l-196 -220h-456v12l460 456h384l460 -456v-12h-456z" />
    <glyph glyph-name="uni0136" unicode="&#x136;" horiz-adv-x="2012" 
d="M132 0v2048h556v-828h28l616 828h648l-692 -912l708 -1136h-664l-460 768l-184 -240v-528h-556zM618 -636l132 478h496l-252 -478h-376z" />
    <glyph glyph-name="uni0137" unicode="&#x137;" horiz-adv-x="1708" 
d="M636 364l4 656h72l372 516h620l-624 -804h-156zM140 0v2048h552v-2048h-552zM1088 0l-352 608l360 392l624 -1000h-632zM490 -640l132 478h496l-252 -478h-376z" />
    <glyph glyph-name="uni0138" unicode="&#x138;" horiz-adv-x="1964" 
d="M696 1536v-1536h-520v1536h520zM1812 1536l-688 -1030h-488l-56 512h266l298 518h668zM1124 0l-296 584l468 224l492 -808h-664z" />
    <glyph glyph-name="uni0139" unicode="&#x139;" horiz-adv-x="1608" 
d="M132 0v2048h556v-1600h828v-448h-1384zM220 2240l192 448h472l-300 -448h-364z" />
    <glyph glyph-name="uni013A" unicode="&#x13a;" horiz-adv-x="832" 
d="M692 2048v-2048h-552v2048h552zM232 2240l192 448h472l-300 -448h-364z" />
    <glyph glyph-name="uni013B" unicode="&#x13b;" horiz-adv-x="1608" 
d="M132 0v2048h556v-1600h828v-448h-1384zM450 -640l132 478h496l-252 -478h-376z" />
    <glyph glyph-name="uni013C" unicode="&#x13c;" horiz-adv-x="832" 
d="M692 2048v-2048h-552v2048h552zM42 -640l132 478h496l-252 -478h-376z" />
    <glyph glyph-name="uni013D" unicode="&#x13d;" horiz-adv-x="1608" 
d="M132 0v2048h556v-1600h828v-448h-1384zM968 1626v534h372l-74 -534h-298z" />
    <glyph glyph-name="uni013E" unicode="&#x13e;" horiz-adv-x="1192" 
d="M692 2048v-2048h-552v2048h552zM852 1626v534h372l-74 -534h-298z" />
    <glyph glyph-name="uni013F" unicode="&#x13f;" horiz-adv-x="1664" 
d="M144 0v2048h556v-1600h828v-448h-1384zM1081 1036q-113 0 -193 74t-80 178t80 178t192 74q113 0 192.5 -74t79.5 -178t-79.5 -178t-191.5 -74z" />
    <glyph glyph-name="uni0140" unicode="&#x140;" horiz-adv-x="1340" 
d="M708 2048v-2048h-552v2048h552zM1105 860q-113 0 -193 74t-80 178t80 178t192 74q113 0 192.5 -74t79.5 -178t-79.5 -178t-191.5 -74z" />
    <glyph glyph-name="uni0141" unicode="&#x141;" horiz-adv-x="1692" 
d="M1032 1352v-276l-1004 -256v272zM276 0v2048h556v-1600h828v-448h-1384z" />
    <glyph glyph-name="uni0142" unicode="&#x142;" horiz-adv-x="832" 
d="M864 1368v-276l-896 -260v276zM692 2048v-2048h-552v2048h552z" />
    <glyph glyph-name="uni0143" unicode="&#x143;" horiz-adv-x="2036" 
d="M1904 2048v-2048h-464l-740 1076h-12v-1076h-556v2048h472l728 -1072h16v1072h556zM836 2240l192 448h472l-300 -448h-364z" />
    <glyph glyph-name="uni0144" unicode="&#x144;" horiz-adv-x="1820" 
d="M692 864v-864h-552v1536h524v-292h16q50 146 176.5 229t295.5 83q163 0 283.5 -74.5t187 -204.5t65.5 -297v-980h-552v864q1 114 -57.5 179t-162.5 65q-68 0 -118.5 -29.5t-77.5 -84t-28 -130.5zM728 1728l192 448h472l-300 -448h-364z" />
    <glyph glyph-name="uni0145" unicode="&#x145;" horiz-adv-x="2036" 
d="M1904 2048v-2048h-464l-740 1076h-12v-1076h-556v2048h472l728 -1072h16v1072h556zM646 -640l132 478h496l-252 -478h-376z" />
    <glyph glyph-name="uni0146" unicode="&#x146;" horiz-adv-x="1820" 
d="M692 864v-864h-552v1536h524v-292h16q50 146 176.5 229t295.5 83q163 0 283.5 -74.5t187 -204.5t65.5 -297v-980h-552v864q1 114 -57.5 179t-162.5 65q-68 0 -118.5 -29.5t-77.5 -84t-28 -130.5zM538 -640l132 478h496l-252 -478h-376z" />
    <glyph glyph-name="uni0147" unicode="&#x147;" horiz-adv-x="2036" 
d="M1904 2048v-2048h-464l-740 1076h-12v-1076h-556v2048h472l728 -1072h16v1072h556zM824 2700l196 -220l196 220h456v-12l-460 -456h-384l-460 456v12h456z" />
    <glyph glyph-name="uni0148" unicode="&#x148;" horiz-adv-x="1820" 
d="M692 864v-864h-552v1536h524v-292h16q50 146 176.5 229t295.5 83q163 0 283.5 -74.5t187 -204.5t65.5 -297v-980h-552v864q1 114 -57.5 179t-162.5 65q-68 0 -118.5 -29.5t-77.5 -84t-28 -130.5zM716 2188l196 -220l196 220h456v-12l-460 -456h-384l-460 456v12h456z" />
    <glyph glyph-name="uni014A" unicode="&#x14a;" horiz-adv-x="2036" 
d="M1440 0h464v-28q0 -236 -88 -366.5t-252 -182t-392 -51.5q-37 0 -82 7.5t-86 20.5v400q40 -9 92 -14.5t104 -5.5q112 0 176 48t64 132v40zM1904 2048v-2048h-464l-740 1076h-12v-1076h-556v2048h472l728 -1072h16v1072h556z" />
    <glyph glyph-name="uni014B" unicode="&#x14b;" horiz-adv-x="1864" 
d="M1136 32h552v-32q0 -194 -79.5 -322t-224.5 -191t-344 -63q-68 0 -133 4t-135 16l48 444q37 -9 75 -14.5t85 -5.5q79 0 117.5 34t38.5 98v32zM692 864v-864h-552v1536h524v-292h16q50 146 176.5 229t295.5 83q163 0 283.5 -74.5t187 -204.5t65.5 -297v-980h-552v864
q1 114 -57.5 179t-162.5 65q-68 0 -118.5 -29.5t-77.5 -84t-28 -130.5z" />
    <glyph glyph-name="uni014C" unicode="&#x14c;" horiz-adv-x="2240" 
d="M2116 1024q0 -342 -133 -576.5t-359 -355t-504 -120.5q-280 0 -505.5 121.5t-358 356t-132.5 574.5q0 342 132.5 576.5t358 355t505.5 120.5q278 0 504 -120.5t359 -355t133 -576.5zM1544 1024q0 184 -48.5 310.5t-143 192t-232.5 65.5t-232.5 -65.5t-143 -192
t-48.5 -310.5t48.5 -310.5t143 -192t232.5 -65.5t232.5 65.5t143 192t48.5 310.5zM1620 2560v-252h-1000v252h1000z" />
    <glyph glyph-name="uni014D" unicode="&#x14d;" horiz-adv-x="1760" 
d="M880 -28q-250 0 -428 99.5t-273 278t-95 414.5t95 414.5t273 278t428 99.5t428 -99.5t273 -278t95 -414.5t-95 -414.5t-273 -278t-428 -99.5zM884 380q70 0 121 47t79 134t28 207q0 121 -28 207.5t-79 133.5t-121 47q-74 0 -127 -47t-81 -133.5t-28 -207.5
q0 -120 28 -207t81 -134t127 -47zM1380 2048v-252h-1000v252h1000z" />
    <glyph glyph-name="uni014E" unicode="&#x14e;" horiz-adv-x="2240" 
d="M2116 1024q0 -342 -133 -576.5t-359 -355t-504 -120.5q-280 0 -505.5 121.5t-358 356t-132.5 574.5q0 342 132.5 576.5t358 355t505.5 120.5q278 0 504 -120.5t359 -355t133 -576.5zM1544 1024q0 184 -48.5 310.5t-143 192t-232.5 65.5t-232.5 -65.5t-143 -192
t-48.5 -310.5t48.5 -310.5t143 -192t232.5 -65.5t232.5 65.5t143 192t48.5 310.5zM1320 2600h348q-1 -195 -149 -311.5t-399 -116.5q-253 0 -401 116.5t-147 311.5h344q-1 -63 45.5 -115.5t158.5 -52.5q107 0 153 51t47 117z" />
    <glyph glyph-name="uni014F" unicode="&#x14f;" horiz-adv-x="1760" 
d="M880 -28q-250 0 -428 99.5t-273 278t-95 414.5t95 414.5t273 278t428 99.5t428 -99.5t273 -278t95 -414.5t-95 -414.5t-273 -278t-428 -99.5zM884 380q70 0 121 47t79 134t28 207q0 121 -28 207.5t-79 133.5t-121 47q-74 0 -127 -47t-81 -133.5t-28 -207.5
q0 -120 28 -207t81 -134t127 -47zM1080 2088h348q-1 -195 -149 -311.5t-399 -116.5q-253 0 -401 116.5t-147 311.5h344q-1 -63 45.5 -115.5t158.5 -52.5q107 0 153 51t47 117z" />
    <glyph glyph-name="uni0150" unicode="&#x150;" horiz-adv-x="2240" 
d="M2116 1024q0 -342 -133 -576.5t-359 -355t-504 -120.5q-280 0 -505.5 121.5t-358 356t-132.5 574.5q0 342 132.5 576.5t358 355t505.5 120.5q278 0 504 -120.5t359 -355t133 -576.5zM1544 1024q0 184 -48.5 310.5t-143 192t-232.5 65.5t-232.5 -65.5t-143 -192
t-48.5 -310.5t48.5 -310.5t143 -192t232.5 -65.5t232.5 65.5t143 192t48.5 310.5zM1204 2232l324 408h424l-384 -408h-364zM624 2232l296 408h424l-348 -408h-372z" />
    <glyph glyph-name="uni0151" unicode="&#x151;" horiz-adv-x="1760" 
d="M880 -28q-250 0 -428 99.5t-273 278t-95 414.5t95 414.5t273 278t428 99.5t428 -99.5t273 -278t95 -414.5t-95 -414.5t-273 -278t-428 -99.5zM884 380q70 0 121 47t79 134t28 207q0 121 -28 207.5t-79 133.5t-121 47q-74 0 -127 -47t-81 -133.5t-28 -207.5
q0 -120 28 -207t81 -134t127 -47zM964 1720l324 408h424l-384 -408h-364zM384 1720l296 408h424l-348 -408h-372z" />
    <glyph glyph-name="uni0152" unicode="&#x152;" horiz-adv-x="2988" 
d="M1072 0q-264 0 -479.5 110t-342 336t-126.5 574q0 350 126.5 578t342 339t479.5 111h1772v-448h-920v-352h844v-448h-844v-352h916v-448h-1768zM1368 448v1152h-296q-110 0 -197 -51.5t-137 -178t-50 -350.5q0 -226 50 -350t137 -173t197 -49h296z" />
    <glyph glyph-name="uni0153" unicode="&#x153;" horiz-adv-x="2724" 
d="M888 -28q-250 0 -428 99.5t-273 278t-95 414.5t95 414.5t273 278t428 99.5t428 -99.5t273 -278t95 -414.5t-95 -414.5t-273 -278t-428 -99.5zM892 380q70 0 121 47t79 134t28 207q0 121 -28 207.5t-79 133.5t-121 47q-74 0 -127 -47t-81 -133.5t-28 -207.5
q0 -120 28 -207t81 -134t127 -47zM1948 -28q-246 0 -423.5 94.5t-273 272t-95.5 425.5q0 238 96 416t271 277t413 99q174 0 315 -54t241 -156.5t154 -248.5t54 -329v-128h-1372v304h864q-1 66 -33.5 116.5t-87 79t-123.5 28.5q-67 0 -123 -28.5t-89.5 -78.5t-35.5 -117v-328
q0 -74 31 -132t89 -91t140 -33q57 0 104.5 16t81.5 46.5t50 73.5h504q-26 -160 -123 -277.5t-256.5 -182t-372.5 -64.5z" />
    <glyph glyph-name="uni0154" unicode="&#x154;" horiz-adv-x="1880" 
d="M132 0v2048h884q228 0 399 -83t266 -239t95 -374q0 -220 -97.5 -371t-273 -228t-409.5 -77h-528v432h416q98 0 167.5 24.5t107 78.5t37.5 141q0 88 -37.5 143.5t-107 82t-167.5 26.5h-196v-1604h-556zM1332 940l512 -940h-604l-500 940h592zM744 2240l192 448h472
l-300 -448h-364z" />
    <glyph glyph-name="uni0155" unicode="&#x155;" horiz-adv-x="1220" 
d="M140 0v1536h536v-292h16q42 162 133.5 237t214.5 75q36 0 71.5 -5.5t68.5 -15.5v-471q-41 14 -101 21t-103 7q-81 0 -145.5 -36.5t-101.5 -102t-37 -153.5v-800h-552zM480 1728l192 448h472l-300 -448h-364z" />
    <glyph glyph-name="uni0156" unicode="&#x156;" horiz-adv-x="1880" 
d="M132 0v2048h884q228 0 399 -83t266 -239t95 -374q0 -220 -97.5 -371t-273 -228t-409.5 -77h-528v432h416q98 0 167.5 24.5t107 78.5t37.5 141q0 88 -37.5 143.5t-107 82t-167.5 26.5h-196v-1604h-556zM1332 940l512 -940h-604l-500 940h592zM586 -640l132 478h496
l-252 -478h-376z" />
    <glyph glyph-name="uni0157" unicode="&#x157;" horiz-adv-x="1220" 
d="M140 0v1536h536v-292h16q42 162 133.5 237t214.5 75q36 0 71.5 -5.5t68.5 -15.5v-471q-41 14 -101 21t-103 7q-81 0 -145.5 -36.5t-101.5 -102t-37 -153.5v-800h-552zM46 -640l132 478h496l-252 -478h-376z" />
    <glyph glyph-name="uni0158" unicode="&#x158;" horiz-adv-x="1880" 
d="M132 0v2048h884q228 0 399 -83t266 -239t95 -374q0 -220 -97.5 -371t-273 -228t-409.5 -77h-528v432h416q98 0 167.5 24.5t107 78.5t37.5 141q0 88 -37.5 143.5t-107 82t-167.5 26.5h-196v-1604h-556zM1332 940l512 -940h-604l-500 940h592zM732 2700l196 -220l196 220
h456v-12l-460 -456h-384l-460 456v12h456z" />
    <glyph glyph-name="uni0159" unicode="&#x159;" horiz-adv-x="1220" 
d="M140 0v1536h536v-292h16q42 162 133.5 237t214.5 75q36 0 71.5 -5.5t68.5 -15.5v-471q-41 14 -101 21t-103 7q-81 0 -145.5 -36.5t-101.5 -102t-37 -153.5v-800h-552zM468 2188l196 -220l196 220h456v-12l-460 -456h-384l-460 456v12h456z" />
    <glyph glyph-name="uni015A" unicode="&#x15a;" horiz-adv-x="1876" 
d="M1236 1408q-8 100 -74.5 156t-201.5 56q-86 0 -140.5 -20.5t-80.5 -55.5t-27 -80q-2 -37 13.5 -66.5t49.5 -53t87 -42.5t126 -34l168 -36q170 -36 291 -95t198 -138.5t113.5 -178.5t37.5 -216q-1 -202 -101 -342t-285.5 -213t-445.5 -73q-267 0 -465.5 79t-308 243.5
t-110.5 421.5h528q5 -94 47 -158t118.5 -97t182.5 -33q89 0 149 22t91 61t32 89q-1 47 -30.5 82.5t-96.5 64t-181 53.5l-204 44q-272 59 -428.5 197.5t-155.5 378.5q-1 195 104.5 341.5t293 228.5t430.5 82q248 0 429 -83t279.5 -233.5t99.5 -351.5h-532zM756 2240l192 448
h472l-300 -448h-364z" />
    <glyph glyph-name="uni015B" unicode="&#x15b;" horiz-adv-x="1656" 
d="M1544 1036h-508q-4 47 -33 81t-74.5 52.5t-100.5 18.5q-71 0 -122 -26t-50 -74q-1 -34 29.5 -63t118.5 -45l312 -56q236 -43 351.5 -144.5t116.5 -271.5q-1 -164 -97.5 -284.5t-263 -186t-379.5 -65.5q-352 0 -550.5 144t-221.5 380h548q11 -73 72.5 -112.5t155.5 -39.5
q76 0 125.5 26t50.5 74q-1 44 -43.5 70t-132.5 42l-272 48q-235 41 -352 156t-116 296q-1 160 84.5 271.5t245 170t378.5 58.5q333 0 525.5 -138t202.5 -382zM648 1728l192 448h472l-300 -448h-364z" />
    <glyph glyph-name="uni015C" unicode="&#x15c;" horiz-adv-x="1876" 
d="M1236 1408q-8 100 -74.5 156t-201.5 56q-86 0 -140.5 -20.5t-80.5 -55.5t-27 -80q-2 -37 13.5 -66.5t49.5 -53t87 -42.5t126 -34l168 -36q170 -36 291 -95t198 -138.5t113.5 -178.5t37.5 -216q-1 -202 -101 -342t-285.5 -213t-445.5 -73q-267 0 -465.5 79t-308 243.5
t-110.5 421.5h528q5 -94 47 -158t118.5 -97t182.5 -33q89 0 149 22t91 61t32 89q-1 47 -30.5 82.5t-96.5 64t-181 53.5l-204 44q-272 59 -428.5 197.5t-155.5 378.5q-1 195 104.5 341.5t293 228.5t430.5 82q248 0 429 -83t279.5 -233.5t99.5 -351.5h-532zM1136 2232
l-196 220l-196 -220h-456v12l460 456h384l460 -456v-12h-456z" />
    <glyph glyph-name="uni015D" unicode="&#x15d;" horiz-adv-x="1656" 
d="M1544 1036h-508q-4 47 -33 81t-74.5 52.5t-100.5 18.5q-71 0 -122 -26t-50 -74q-1 -34 29.5 -63t118.5 -45l312 -56q236 -43 351.5 -144.5t116.5 -271.5q-1 -164 -97.5 -284.5t-263 -186t-379.5 -65.5q-352 0 -550.5 144t-221.5 380h548q11 -73 72.5 -112.5t155.5 -39.5
q76 0 125.5 26t50.5 74q-1 44 -43.5 70t-132.5 42l-272 48q-235 41 -352 156t-116 296q-1 160 84.5 271.5t245 170t378.5 58.5q333 0 525.5 -138t202.5 -382zM1028 1720l-196 220l-196 -220h-456v12l460 456h384l460 -456v-12h-456z" />
    <glyph glyph-name="uni015E" unicode="&#x15e;" horiz-adv-x="1876" 
d="M1236 1408q-8 100 -74.5 156t-201.5 56q-86 0 -140.5 -20.5t-80.5 -55.5t-27 -80q-2 -37 13.5 -66.5t49.5 -53t87 -42.5t126 -34l168 -36q170 -36 291 -95t198 -138.5t113.5 -178.5t37.5 -216q-1 -202 -101 -342t-285.5 -213t-445.5 -73q-267 0 -465.5 79t-308 243.5
t-110.5 421.5h528q5 -94 47 -158t118.5 -97t182.5 -33q89 0 149 22t91 61t32 89q-1 47 -30.5 82.5t-96.5 64t-181 53.5l-204 44q-272 59 -428.5 197.5t-155.5 378.5q-1 195 104.5 341.5t293 228.5t430.5 82q248 0 429 -83t279.5 -233.5t99.5 -351.5h-532zM848 8h196l-16 -92
q119 -18 185 -84t67 -164q2 -162 -158.5 -255t-441.5 -93v212q148 0 226 31.5t82 92.5q4 56 -43.5 92.5t-144.5 51.5z" />
    <glyph glyph-name="uni015F" unicode="&#x15f;" horiz-adv-x="1656" 
d="M1544 1036h-508q-4 47 -33 81t-74.5 52.5t-100.5 18.5q-71 0 -122 -26t-50 -74q-1 -34 29.5 -63t118.5 -45l312 -56q236 -43 351.5 -144.5t116.5 -271.5q-1 -164 -97.5 -284.5t-263 -186t-379.5 -65.5q-352 0 -550.5 144t-221.5 380h548q11 -73 72.5 -112.5t155.5 -39.5
q76 0 125.5 26t50.5 74q-1 44 -43.5 70t-132.5 42l-272 48q-235 41 -352 156t-116 296q-1 160 84.5 271.5t245 170t378.5 58.5q333 0 525.5 -138t202.5 -382zM748 8h196l-16 -92q119 -18 185 -84t67 -164q2 -162 -158.5 -255t-441.5 -93v212q148 0 226 31.5t82 92.5
q4 56 -43.5 92.5t-144.5 51.5z" />
    <glyph glyph-name="uni0160" unicode="&#x160;" horiz-adv-x="1876" 
d="M1236 1408q-8 100 -74.5 156t-201.5 56q-86 0 -140.5 -20.5t-80.5 -55.5t-27 -80q-2 -37 13.5 -66.5t49.5 -53t87 -42.5t126 -34l168 -36q170 -36 291 -95t198 -138.5t113.5 -178.5t37.5 -216q-1 -202 -101 -342t-285.5 -213t-445.5 -73q-267 0 -465.5 79t-308 243.5
t-110.5 421.5h528q5 -94 47 -158t118.5 -97t182.5 -33q89 0 149 22t91 61t32 89q-1 47 -30.5 82.5t-96.5 64t-181 53.5l-204 44q-272 59 -428.5 197.5t-155.5 378.5q-1 195 104.5 341.5t293 228.5t430.5 82q248 0 429 -83t279.5 -233.5t99.5 -351.5h-532zM744 2700l196 -220
l196 220h456v-12l-460 -456h-384l-460 456v12h456z" />
    <glyph glyph-name="uni0161" unicode="&#x161;" horiz-adv-x="1656" 
d="M1544 1036h-508q-4 47 -33 81t-74.5 52.5t-100.5 18.5q-71 0 -122 -26t-50 -74q-1 -34 29.5 -63t118.5 -45l312 -56q236 -43 351.5 -144.5t116.5 -271.5q-1 -164 -97.5 -284.5t-263 -186t-379.5 -65.5q-352 0 -550.5 144t-221.5 380h548q11 -73 72.5 -112.5t155.5 -39.5
q76 0 125.5 26t50.5 74q-1 44 -43.5 70t-132.5 42l-272 48q-235 41 -352 156t-116 296q-1 160 84.5 271.5t245 170t378.5 58.5q333 0 525.5 -138t202.5 -382zM636 2188l196 -220l196 220h456v-12l-460 -456h-384l-460 456v12h456z" />
    <glyph glyph-name="uni0162" unicode="&#x162;" horiz-adv-x="1932" 
d="M76 1600v448h1780v-448h-616v-1600h-548v1600h-616zM860 8h196l-16 -92q119 -18 185 -84t67 -164q2 -162 -158.5 -255t-441.5 -93v212q148 0 226 31.5t82 92.5q4 56 -43.5 92.5t-144.5 51.5z" />
    <glyph glyph-name="uni0163" unicode="&#x163;" horiz-adv-x="1140" 
d="M1056 1536v-400h-1012v400h1012zM240 1904h552v-1410q0 -32 11 -53.5t34 -32t59 -10.5q25 0 58.5 6t49.5 10l80 -388q-37 -11 -105.5 -27t-162.5 -21q-190 -10 -319 39.5t-194 156.5t-63 268v1462zM688 8h196l-16 -92q119 -18 185 -84t67 -164q2 -162 -158.5 -255
t-441.5 -93v212q148 0 226 31.5t82 92.5q4 56 -43.5 92.5t-144.5 51.5z" />
    <glyph glyph-name="uni0164" unicode="&#x164;" horiz-adv-x="1932" 
d="M76 1600v448h1780v-448h-616v-1600h-548v1600h-616zM772 2700l196 -220l196 220h456v-12l-460 -456h-384l-460 456v12h456z" />
    <glyph glyph-name="uni0165" unicode="&#x165;" horiz-adv-x="1310" 
d="M1056 1536v-400h-1012v400h1012zM240 1904h552v-1410q0 -32 11 -53.5t34 -32t59 -10.5q25 0 58.5 6t49.5 10l80 -388q-37 -11 -105.5 -27t-162.5 -21q-190 -10 -319 39.5t-194 156.5t-63 268v1462zM970 1726v534h372l-74 -534h-298z" />
    <glyph glyph-name="uni0166" unicode="&#x166;" horiz-adv-x="1932" 
d="M76 1600v448h1780v-448h-616v-1600h-548v1600h-616zM424 780v296h1076v-296h-1076z" />
    <glyph glyph-name="uni0167" unicode="&#x167;" horiz-adv-x="1140" 
d="M44 724v216h1012v-216h-1012zM1056 1536v-400h-1012v400h1012zM240 1904h552v-1410q0 -32 11 -53.5t34 -32t59 -10.5q25 0 58.5 6t49.5 10l80 -388q-37 -11 -105.5 -27t-162.5 -21q-190 -10 -319 39.5t-194 156.5t-63 268v1462z" />
    <glyph glyph-name="uni0168" unicode="&#x168;" horiz-adv-x="2032" 
d="M1344 2048h556v-1312q0 -234 -111.5 -404.5t-310.5 -263t-462 -92.5q-265 0 -464 92.5t-309.5 263t-110.5 404.5v1312h556v-1264q0 -95 42 -169.5t116.5 -116.5t169.5 -42q96 0 170 42t116 116.5t42 169.5v1264zM744 2240h-272q0 216 99 321.5t241 106.5
q78 0 132.5 -24.5t95.5 -57.5t74.5 -57.5t69.5 -24.5q58 1 82.5 42t25.5 114h268q-3 -212 -101.5 -321t-238.5 -111q-78 -1 -132.5 24t-94 57.5t-73.5 57.5t-72 25q-48 0 -76 -38.5t-28 -113.5z" />
    <glyph glyph-name="uni0169" unicode="&#x169;" horiz-adv-x="1828" 
d="M1136 672v864h552v-1536h-524v292h-16q-50 -147 -175 -229.5t-297 -82.5q-161 0 -281.5 74t-187 204t-67.5 298v980h552v-864q1 -114 58.5 -179t161.5 -65q69 0 119.5 29.5t78 84t26.5 130.5zM644 1728h-272q0 216 99 321.5t241 106.5q78 0 132.5 -24.5t95.5 -57.5
t74.5 -57.5t69.5 -24.5q58 1 82.5 42t25.5 114h268q-3 -212 -101.5 -321t-238.5 -111q-78 -1 -132.5 24t-94 57.5t-73.5 57.5t-72 25q-48 0 -76 -38.5t-28 -113.5z" />
    <glyph glyph-name="uni016A" unicode="&#x16a;" horiz-adv-x="2032" 
d="M1344 2048h556v-1312q0 -234 -111.5 -404.5t-310.5 -263t-462 -92.5q-265 0 -464 92.5t-309.5 263t-110.5 404.5v1312h556v-1264q0 -95 42 -169.5t116.5 -116.5t169.5 -42q96 0 170 42t116 116.5t42 169.5v1264zM1516 2560v-252h-1000v252h1000z" />
    <glyph glyph-name="uni016B" unicode="&#x16b;" horiz-adv-x="1828" 
d="M1136 672v864h552v-1536h-524v292h-16q-50 -147 -175 -229.5t-297 -82.5q-161 0 -281.5 74t-187 204t-67.5 298v980h552v-864q1 -114 58.5 -179t161.5 -65q69 0 119.5 29.5t78 84t26.5 130.5zM1416 2048v-252h-1000v252h1000z" />
    <glyph glyph-name="uni016C" unicode="&#x16c;" horiz-adv-x="2032" 
d="M1344 2048h556v-1312q0 -234 -111.5 -404.5t-310.5 -263t-462 -92.5q-265 0 -464 92.5t-309.5 263t-110.5 404.5v1312h556v-1264q0 -95 42 -169.5t116.5 -116.5t169.5 -42q96 0 170 42t116 116.5t42 169.5v1264zM1216 2600h348q-1 -195 -149 -311.5t-399 -116.5
q-253 0 -401 116.5t-147 311.5h344q-1 -63 45.5 -115.5t158.5 -52.5q107 0 153 51t47 117z" />
    <glyph glyph-name="uni016D" unicode="&#x16d;" horiz-adv-x="1828" 
d="M1136 672v864h552v-1536h-524v292h-16q-50 -147 -175 -229.5t-297 -82.5q-161 0 -281.5 74t-187 204t-67.5 298v980h552v-864q1 -114 58.5 -179t161.5 -65q69 0 119.5 29.5t78 84t26.5 130.5zM1116 2088h348q-1 -195 -149 -311.5t-399 -116.5q-253 0 -401 116.5
t-147 311.5h344q-1 -63 45.5 -115.5t158.5 -52.5q107 0 153 51t47 117z" />
    <glyph glyph-name="uni016E" unicode="&#x16e;" horiz-adv-x="2032" 
d="M1344 2048h556v-1312q0 -234 -111.5 -404.5t-310.5 -263t-462 -92.5q-265 0 -464 92.5t-309.5 263t-110.5 404.5v1312h556v-1264q0 -95 42 -169.5t116.5 -116.5t169.5 -42q96 0 170 42t116 116.5t42 169.5v1264zM1016 2152q-133 0 -226.5 90.5t-93.5 217.5q0 85 43 155
t116 111.5t161 41.5q89 0 161.5 -41.5t115.5 -111.5t43 -155t-43 -155t-115.5 -111.5t-161.5 -41.5zM1016 2340q52 1 90 36t38 85q0 49 -37.5 84.5t-90.5 34.5q-52 -1 -90 -35.5t-38 -84.5q0 -49 37.5 -85t90.5 -35z" />
    <glyph glyph-name="uni016F" unicode="&#x16f;" horiz-adv-x="1828" 
d="M1136 672v864h552v-1536h-524v292h-16q-50 -147 -175 -229.5t-297 -82.5q-161 0 -281.5 74t-187 204t-67.5 298v980h552v-864q1 -114 58.5 -179t161.5 -65q69 0 119.5 29.5t78 84t26.5 130.5zM916 1696q-90 0 -164.5 43.5t-119 116t-44.5 160.5t44.5 160.5t119 116
t164.5 43.5t164.5 -43.5t119 -116t44.5 -160.5t-44.5 -160.5t-119 -116t-164.5 -43.5zM916 1892q55 1 93.5 37t38.5 87t-38.5 88t-93.5 36t-93.5 -37t-38.5 -87t38.5 -88t93.5 -36z" />
    <glyph glyph-name="uni0170" unicode="&#x170;" horiz-adv-x="2032" 
d="M1344 2048h556v-1312q0 -234 -111.5 -404.5t-310.5 -263t-462 -92.5q-265 0 -464 92.5t-309.5 263t-110.5 404.5v1312h556v-1264q0 -95 42 -169.5t116.5 -116.5t169.5 -42q96 0 170 42t116 116.5t42 169.5v1264zM1100 2232l324 408h424l-384 -408h-364zM520 2232l296 408
h424l-348 -408h-372z" />
    <glyph glyph-name="uni0171" unicode="&#x171;" horiz-adv-x="1828" 
d="M1136 672v864h552v-1536h-524v292h-16q-50 -147 -175 -229.5t-297 -82.5q-161 0 -281.5 74t-187 204t-67.5 298v980h552v-864q1 -114 58.5 -179t161.5 -65q69 0 119.5 29.5t78 84t26.5 130.5zM1000 1720l324 408h424l-384 -408h-364zM420 1720l296 408h424l-348 -408
h-372z" />
    <glyph glyph-name="uni0172" unicode="&#x172;" horiz-adv-x="2032" 
d="M1344 2048h556v-1312q0 -234 -111.5 -404.5t-310.5 -263t-462 -92.5q-265 0 -464 92.5t-309.5 263t-110.5 404.5v1312h556v-1264q0 -95 42 -169.5t116.5 -116.5t169.5 -42q96 0 170 42t116 116.5t42 169.5v1264zM1120 -556q-139 0 -234.5 69t-133.5 195q-26 86 -20.5 175
t40 158t92.5 95l456 -136q-97 -30 -149 -65t-51 -95q-1 -51 25.5 -77.5t66.5 -26.5q26 0 45.5 6.5t38.5 9.5l64 -248q-40 -21 -100 -40.5t-140 -19.5z" />
    <glyph glyph-name="uni0173" unicode="&#x173;" horiz-adv-x="1828" 
d="M1136 672v864h552v-1536h-524v292h-16q-50 -147 -175 -229.5t-297 -82.5q-161 0 -281.5 74t-187 204t-67.5 298v980h552v-864q1 -114 58.5 -179t161.5 -65q69 0 119.5 29.5t78 84t26.5 130.5zM1488 -556q-139 0 -234.5 69t-133.5 195q-26 86 -20.5 175t40 158t92.5 95
l456 -136q-97 -30 -149 -65t-51 -95q-1 -51 25.5 -77.5t66.5 -26.5q26 0 45.5 6.5t38.5 9.5l64 -248q-40 -21 -100 -40.5t-140 -19.5z" />
    <glyph glyph-name="uni0174" unicode="&#x174;" horiz-adv-x="3080" 
d="M652 0l-604 2048h620l280 -1260h16l332 1260h488l332 -1264h16l280 1264h620l-604 -2048h-532l-348 1144h-16l-348 -1144h-532zM1736 2232l-196 220l-196 -220h-456v12l460 456h384l460 -456v-12h-456z" />
    <glyph glyph-name="uni0175" unicode="&#x175;" horiz-adv-x="2464" 
d="M412 0l-384 1536h552l176 -936h12l196 936h536l204 -928h12l168 928h552l-384 -1536h-596l-216 824h-16l-216 -824h-596zM1428 1720l-196 220l-196 -220h-456v12l460 456h384l460 -456v-12h-456z" />
    <glyph glyph-name="uni0176" unicode="&#x176;" horiz-adv-x="2152" 
d="M48 2048h620l400 -832h16l400 832h620l-752 -1404v-644h-552v644zM1272 2232l-196 220l-196 -220h-456v12l460 456h384l460 -456v-12h-456z" />
    <glyph glyph-name="uni0177" unicode="&#x177;" horiz-adv-x="1704" 
d="M476 -576q-95 0 -181 14.5t-151 39.5l120 392q68 -24 124.5 -31t97 8t58.5 57l12 28l-540 1604h576l248 -1064h16l252 1064h580l-560 -1664q-42 -127 -121.5 -228.5t-208.5 -160.5t-322 -59zM1044 1720l-196 220l-196 -220h-456v12l460 456h384l460 -456v-12h-456z" />
    <glyph glyph-name="uni0178" unicode="&#x178;" horiz-adv-x="2152" 
d="M48 2048h620l400 -832h16l400 832h620l-752 -1404v-644h-552v644zM760 2228q-102 0 -173 68t-71 164t71 164t173 68q99 0 169.5 -68t70.5 -164t-70.5 -164t-169.5 -68zM1396 2228q-102 0 -173 68t-71 164t71 164t173 68q99 0 169.5 -68t70.5 -164t-70.5 -164t-169.5 -68z
" />
    <glyph glyph-name="uni0179" unicode="&#x179;" horiz-adv-x="1956" 
d="M140 0v308l968 1292h-964v448h1672v-308l-968 -1292h964v-448h-1672zM800 2240l192 448h472l-300 -448h-364z" />
    <glyph glyph-name="uni017A" unicode="&#x17a;" horiz-adv-x="1668" 
d="M156 0v304l672 804v8h-648v420h1300v-336l-612 -772v-8h636v-420h-1348zM648 1728l192 448h472l-300 -448h-364z" />
    <glyph glyph-name="uni017B" unicode="&#x17b;" horiz-adv-x="1956" 
d="M140 0v308l968 1292h-964v448h1672v-308l-968 -1292h964v-448h-1672zM985 2208q-113 0 -193 74t-80 178t80 178t192 74q113 0 192.5 -74t79.5 -178t-79.5 -178t-191.5 -74z" />
    <glyph glyph-name="uni017C" unicode="&#x17c;" horiz-adv-x="1668" 
d="M156 0v304l672 804v8h-648v420h1300v-336l-612 -772v-8h636v-420h-1348zM833 1696q-113 0 -193 74t-80 178t80 178t192 74q113 0 192.5 -74t79.5 -178t-79.5 -178t-191.5 -74z" />
    <glyph glyph-name="uni017D" unicode="&#x17d;" horiz-adv-x="1956" 
d="M140 0v308l968 1292h-964v448h1672v-308l-968 -1292h964v-448h-1672zM788 2700l196 -220l196 220h456v-12l-460 -456h-384l-460 456v12h456z" />
    <glyph glyph-name="uni017E" unicode="&#x17e;" horiz-adv-x="1668" 
d="M156 0v304l672 804v8h-648v420h1300v-336l-612 -772v-8h636v-420h-1348zM636 2188l196 -220l196 220h456v-12l-460 -456h-384l-460 456v12h456z" />
    <glyph glyph-name="uni017F" unicode="&#x17f;" horiz-adv-x="856" 
d="M508 0h-520v1596q0 178 74.5 299t217 183t344.5 62q59 0 119.5 -8t124.5 -20l-32 -396q-37 6 -66 9t-82 3q-88 0 -134.5 -31.5t-45.5 -100.5v-1596z" />
    <glyph glyph-name="uni0180" unicode="&#x180;" horiz-adv-x="1816" 
d="M132 0v2048h552v-780h8q30 78 88 143.5t144 105t200 39.5q152 0 289.5 -81t224 -255t86.5 -452q0 -266 -82.5 -441t-220 -261t-301.5 -86q-108 0 -192.5 35.5t-144 97t-91.5 139.5h-12v-252h-548zM672 768q0 -112 29.5 -193.5t84 -126t130.5 -44.5t129.5 43.5t82 125
t28.5 195.5t-28.5 195.5t-82 125t-129.5 43.5t-130.5 -43.5t-84 -125t-29.5 -195.5zM-136 1624v296h1076v-296h-1076z" />
    <glyph glyph-name="uni0181" unicode="&#x181;" horiz-adv-x="2560" 
d="M1144 1604h-364q-85 0 -132.5 -40t-66 -100t-17.5 -120v-148h-488v244q-1 194 85.5 330t245 207t373.5 71h364v-444zM812 0v2048h888q234 0 393.5 -63t241 -178t81.5 -271q0 -113 -49.5 -206t-138.5 -155.5t-208 -86.5v-20q132 -5 240 -66.5t172 -169t64 -252.5
q0 -168 -87.5 -299t-248.5 -206t-384 -75h-964zM1368 444h260q140 0 210 52.5t70 155.5q0 72 -33 122t-93.5 76t-145.5 26h-268v-432zM1368 1220h228q73 0 129 23t87.5 66.5t31.5 106.5q0 95 -68 145.5t-172 50.5h-236v-392z" />
    <glyph glyph-name="uni0182" unicode="&#x182;" horiz-adv-x="1848" 
d="M132 0v2048h1440v-448h-884v-240h208q258 0 451.5 -83t301 -234t107.5 -355t-107.5 -359t-301 -242t-451.5 -87h-764zM688 436h208q100 0 168.5 33t104 91t35.5 132q0 105 -79 174.5t-229 69.5h-208v-500z" />
    <glyph glyph-name="uni0183" unicode="&#x183;" horiz-adv-x="1816" 
d="M1496 2048v-364h-812v-416h8q30 78 88 143.5t144 105t200 39.5q152 0 289.5 -81t224 -255t86.5 -452q0 -266 -82.5 -441t-220 -261t-301.5 -86q-108 0 -192.5 35.5t-144 97t-91.5 139.5h-12v-252h-548v2048h1364zM672 768q0 -112 29.5 -193.5t84 -126t130.5 -44.5
t129.5 43.5t82 125t28.5 195.5t-28.5 195.5t-82 125t-129.5 43.5t-130.5 -43.5t-84 -125t-29.5 -195.5z" />
    <glyph glyph-name="uni0184" unicode="&#x184;" horiz-adv-x="2340" 
d="M980 2048v-448h-940v448h940zM884 1360h424q258 0 451.5 -83t301 -234t107.5 -355t-107.5 -359t-301 -242t-451.5 -87h-764v2048h556v-1612h208q100 0 168.5 33t104 91t35.5 132q0 105 -79 174.5t-229 69.5h-424v424z" />
    <glyph glyph-name="uni0185" unicode="&#x185;" horiz-adv-x="1952" 
d="M400 2112h76v-672h-76l-288 200v264zM712 1404h236q27 68 84 100.5t123 42t121 9.5q149 0 287 -81t227 -255t90 -452q-1 -268 -85.5 -442.5t-222 -260t-296.5 -85.5q-71 0 -136.5 10t-116 41t-75.5 93h-236v1280zM1364 768q-1 120 -30.5 201t-88 122t-145.5 41
q-101 0 -152 -52t-68 -135t-16 -177q-1 -92 15 -175.5t67 -136t154 -52.5q87 0 145.5 41t88 122t30.5 201zM380 2048h552v-736l-204 -584l200 -416v-312h-548v2048z" />
    <glyph glyph-name="uni0186" unicode="&#x186;" horiz-adv-x="2164" 
d="M120 768h564q6 -70 31.5 -127t70 -98.5t107.5 -64t143 -22.5q140 0 236.5 68t146 195t49.5 305q0 188 -50.5 314.5t-146 190t-231.5 63.5q-76 0 -137.5 -19.5t-106.5 -56.5t-73 -89.5t-39 -118.5l-564 4q11 131 73.5 265t178 247.5t285.5 182.5t395 69q282 0 505.5 -121
t353 -355.5t129.5 -575.5q0 -342 -132 -576.5t-356 -355t-500 -120.5q-193 0 -356.5 53t-286.5 154.5t-197.5 250t-91.5 338.5z" />
    <glyph glyph-name="uni0187" unicode="&#x187;" horiz-adv-x="2484" 
d="M2044 1280h-536v208q0 210 105.5 353.5t277 217t369.5 73.5q63 0 119.5 -1.5t128.5 -10.5v-440q-30 0 -77.5 2t-74.5 2q-64 0 -136.5 -27t-124 -90t-51.5 -171v-116zM2044 1280h-564q-6 70 -31.5 127t-70 98.5t-107.5 64t-143 22.5q-140 0 -236.5 -68t-146 -195
t-49.5 -305q0 -188 50.5 -314.5t146.5 -190t231 -63.5q77 0 138 19.5t106 56.5t73.5 89.5t38.5 118.5l564 -4q-10 -130 -73 -264.5t-178.5 -248t-285.5 -182.5t-395 -69q-282 0 -505.5 121t-353 356t-129.5 575q0 342 132 576.5t356 355t500 120.5q194 0 357 -53t286 -154.5
t198 -249.5t91 -339z" />
    <glyph glyph-name="uni0188" unicode="&#x188;" horiz-adv-x="1872" 
d="M1628 896h-500v256q0 170 75 289t204.5 181t292.5 62q49 0 98.5 -8.5t105.5 -23.5v-332q-32 3 -61 7.5t-63 4.5q-86 0 -119 -44t-33 -140v-252zM880 -28q-250 0 -428 99.5t-273 278t-95 414.5t95 414.5t273 278t428 99.5q226 0 391.5 -81.5t256.5 -230t92 -348.5h-512
q-11 121 -69.5 184.5t-150.5 63.5q-72 0 -126 -41.5t-84 -125t-30 -209.5t30 -209.5t84 -125t126 -41.5q61 0 108 28.5t76.5 84t35.5 135.5h512q-3 -203 -93 -353.5t-254.5 -232.5t-392.5 -82z" />
    <glyph glyph-name="uni0189" unicode="&#x189;" horiz-adv-x="2064" 
d="M920 0h-560v472h540q152 0 259.5 49t164 169t56.5 334t-57.5 334t-168 169t-270.5 49h-532v472h560q316 0 546.5 -122.5t356 -352t125.5 -549.5t-125 -549.5t-354 -352t-541 -122.5zM688 2048v-2048h-556v2048h556zM-132 948v296h1076v-296h-1076z" />
    <glyph glyph-name="uni018A" unicode="&#x18a;" horiz-adv-x="2748" 
d="M76 1196v244q-1 194 85.5 330t245 207t373.5 71h364v-472h-364q-85 0 -132.5 -33t-66 -86t-17.5 -113v-148h-488zM1604 0h-788v2048h780q316 0 546.5 -122.5t356 -352t125.5 -549.5t-125 -549.5t-354 -352t-541 -122.5zM1372 472h212q152 0 259.5 49t164 169t56.5 334
t-57.5 334t-168 169t-270.5 49h-196v-1104z" />
    <glyph glyph-name="uni018B" unicode="&#x18b;" horiz-adv-x="1964" 
d="M1796 0h-764q-258 0 -451.5 88t-301 243t-107.5 357t107.5 353t301 235t451.5 84h228v268h-904v436h1440v-2064zM1260 428v508h-228q-153 0 -238.5 -69.5t-85.5 -174.5q0 -74 38.5 -134t111 -95t174.5 -35h228z" />
    <glyph glyph-name="uni018C" unicode="&#x18c;" horiz-adv-x="1816" 
d="M320 2048h1084v-364h-1084v364zM1684 0h-548v252h-12q-32 -78 -91.5 -139.5t-144 -97t-192.5 -35.5q-164 0 -301.5 86t-220 261t-82.5 441q0 278 86.5 452t224 255t289.5 81q114 0 200 -39.5t144 -105t88 -143.5h8v780h552v-2048zM1144 768q0 114 -29.5 195.5t-84 125
t-130.5 43.5t-129.5 -43.5t-82 -125t-28.5 -195.5t28.5 -195.5t82 -125t129.5 -43.5t130.5 44.5t84 126t29.5 193.5z" />
    <glyph glyph-name="uni018D" unicode="&#x18d;" horiz-adv-x="2060" 
d="M1628 -516h-1220v412h556q-24 14 -55.5 27t-76 37t-108.5 72q-134 100 -237 212.5t-161 240t-58 271.5v28q0 230 87.5 404t258 271t418.5 97q246 0 416.5 -86.5t259 -242t88.5 -363.5v-28q0 -204 -75 -356t-195 -245t-254 -119h-18.5h-33.5q39 -28 97.5 -81.5t120 -113
t113.5 -110.5t77 -75v-252zM1280 756v28q0 92 -16 174.5t-69 134t-163 51.5q-102 0 -155.5 -46.5t-73 -128t-19.5 -185.5v-28q0 -150 60 -248t144 -140q12 -6 24 -7t24 -1q94 0 147 52.5t75 142t22 201.5z" />
    <glyph glyph-name="uni018E" unicode="&#x18e;" horiz-adv-x="1752" 
d="M1620 2048v-2048h-1476v448h920v352h-844v448h844v352h-916v448h1472z" />
    <glyph glyph-name="uni018F" unicode="&#x18f;" horiz-adv-x="2232" 
d="M1100 -28q-283 0 -487.5 117.5t-314 333t-110.5 509.5v272h1440v-444h-904v-40q1 -76 43 -136.5t125.5 -96t205.5 -35.5q150 0 240 54.5t130 146t40 203.5v328q0 83 -22 156.5t-81 130t-169.5 89t-287.5 32.5q-103 0 -211.5 -10t-201 -25t-151.5 -29l-72 460
q23 9 93.5 23.5t171 29.5t214.5 25t225 10q339 0 567.5 -114.5t344.5 -316t116 -461.5v-328q0 -260 -118.5 -459.5t-330.5 -312t-495 -112.5z" />
    <glyph glyph-name="uni0190" unicode="&#x190;" horiz-adv-x="1964" 
d="M1244 980h-368q-200 0 -356 64.5t-245 177.5t-89 258q0 188 96 321t277.5 204t436.5 71q225 0 401 -75t277 -206t102 -299h-536q-1 77 -62.5 112.5t-183.5 35.5q-92 0 -151.5 -21t-88 -65t-28.5 -114q0 -66 27 -110.5t82.5 -67t140.5 -22.5h268v-264zM876 1100h368v-260
h-268q-100 0 -162 -26t-91 -76.5t-29 -123.5q0 -79 32.5 -126t95.5 -67.5t154 -20.5q143 0 217 41t75 115h540q-1 -172 -104.5 -304t-286 -206t-421.5 -74q-269 0 -457.5 71t-286.5 207t-98 330q0 247 190 383.5t532 136.5z" />
    <glyph glyph-name="uni0191" unicode="&#x191;" horiz-adv-x="1748" 
d="M236 0h556v-48q0 -181 -54.5 -287.5t-144.5 -158t-199 -67t-218 -15.5q-40 0 -118 1t-122 7v408q23 -3 49.5 -1.5t42.5 1.5q77 0 142.5 21.5t65.5 90.5v48zM236 0v2048h1440v-448h-884v-352h796v-448h-796v-800h-556z" />
    <glyph glyph-name="uni0192" unicode="&#x192;" horiz-adv-x="1476" 
d="M1276 1488v-368h-312v-1112q0 -285 -152 -434.5t-424 -149.5q-58 0 -115 4t-125 16l20 408q26 -6 61.5 -11t66.5 -5q104 0 124 47t20 125v1112h-220v368h220v108q2 267 171.5 405.5t476.5 138.5q71 0 126.5 -7.5t113.5 -16.5l-28 -392q-31 6 -64 9t-92 3
q-79 0 -128.5 -35.5t-51.5 -104.5v-108h312z" />
    <glyph glyph-name="uni0193" unicode="&#x193;" horiz-adv-x="2464" 
d="M2024 1372h-568l-4 376q-1 158 63 278.5t174 203t248 124.5t283 42q60 0 117.5 -8.5t126.5 -23.5v-432q-39 3 -75.5 7.5t-72.5 4.5q-74 0 -141 -13t-109 -55t-42 -128v-376zM1462 1372q-13 53 -41 93.5t-69.5 69t-96 43t-119.5 14.5q-140 0 -238.5 -67t-150 -193
t-51.5 -304q0 -180 49 -308t146 -196t241 -68q127 0 211.5 37t126.5 105t42 160l96 -10h-468v396h908v-284q0 -280 -118.5 -478.5t-326 -304t-475.5 -105.5q-299 0 -525 127t-352.5 362t-126.5 559q0 254 77.5 450t215.5 331.5t319 205t388 69.5q182 0 338.5 -51.5t277 -146
t194.5 -223.5t90 -283h-562z" />
    <glyph glyph-name="uni0194" unicode="&#x194;" horiz-adv-x="2312" 
d="M136 2048h640l528 -1104q145 -303 242 -530.5t145.5 -382t48.5 -239.5q0 -112 -73 -203t-204.5 -144t-306.5 -53q-268 0 -436 111.5t-168 304.5q0 35 9 79.5t35.5 117.5t77.5 192t134.5 301.5t207.5 447.5l516 1102h644l-964 -1816q-34 -65 -59.5 -135t-39 -137
t-13.5 -122q0 -48 13.5 -71t42.5 -23t42.5 23t13.5 73q0 56 -13.5 123.5t-37.5 137.5t-57 131z" />
    <glyph glyph-name="uni0195" unicode="&#x195;" horiz-adv-x="2836" 
d="M140 0v2048h532v-804h16q52 147 173 229.5t291 82.5q163 0 283 -74t186.5 -204t66.5 -298v-212h-552v96q0 114 -57 179t-163 65q-67 0 -117.5 -29.5t-78 -84t-28.5 -130.5v-864h-552zM1828 -28q-233 0 -386.5 78.5t-229.5 218.5t-76 323v176h552v-176q0 -53 19 -92
t54 -59.5t83 -20.5q115 0 180.5 117t92.5 335t27 520v144h552v-144q0 -463 -82 -779.5t-271.5 -478.5t-514.5 -162z" />
    <glyph glyph-name="uni0196" unicode="&#x196;" horiz-adv-x="928" 
d="M140 2048h552v-1548q1 -47 27.5 -71.5t76.5 -24.5q26 0 42 2t26 6l80 -380q-34 -11 -82 -23t-146 -17q-297 -15 -436 92.5t-140 363.5v1600z" />
    <glyph glyph-name="uni0197" unicode="&#x197;" horiz-adv-x="820" 
d="M688 2048v-2048h-556v2048h556zM-132 948v296h1076v-296h-1076z" />
    <glyph glyph-name="uni0198" unicode="&#x198;" horiz-adv-x="2160" 
d="M132 0v2048h556v-792h28l580 588q122 124 257 182.5t283 46t308 -100.5l-164 -388q-96 45 -151.5 17t-120.5 -93l-416 -420l836 -1088h-664l-528 692l-248 -256v-436h-556z" />
    <glyph glyph-name="uni0199" unicode="&#x199;" horiz-adv-x="1708" 
d="M1132 0l-316 488l-124 -136v-352h-552v1420h552v-320h20l364 436h628l-564 -656l580 -880h-588zM692 1256h-552v292q0 182 55 288t145 157.5t198 67t214 15.5q88 0 156.5 -6.5t115.5 -9.5v-408q-32 3 -62.5 5.5t-61.5 2.5q-71 0 -139 -21.5t-69 -90.5v-292z" />
    <glyph glyph-name="uni019A" unicode="&#x19a;" horiz-adv-x="832" 
d="M692 2048v-2048h-552v2048h552zM-124 920v296h1076v-296h-1076z" />
    <glyph glyph-name="uni019B" unicode="&#x19b;" horiz-adv-x="1952" 
d="M1296 1884v-292l-992 -300v300zM972 832l-272 -832h-552l560 1540l356 4zM612 2140q158 0 262 -63.5t154 -180.5l576 -1336q15 -34 36.5 -76t53 -73t74.5 -31h29h19l-4 -404q-37 -6 -83 -5t-105 1q-139 0 -236.5 50t-159 127t-92.5 159l-356 992l-148 308
q-25 53 -73.5 84.5t-134.5 31.5q-19 0 -40 -0.5t-56 -3.5l-16 384q65 18 155 27t145 9z" />
    <glyph glyph-name="uni019C" unicode="&#x19c;" horiz-adv-x="2780" 
d="M2048 392v1656h520v-2048h-460zM2116 692l136 4q0 -208 -71.5 -371.5t-205 -258t-319.5 -94.5q-160 0 -277.5 59t-182 190t-64.5 347v1480h512v-1480q0 -54 20.5 -95.5t62 -65t105.5 -23.5q104 0 166.5 40.5t90 110t27.5 157.5zM1200 692l144 4q0 -214 -70 -377
t-205 -255t-329 -92q-182 0 -298 60t-171 191t-55 345v1480h512v-1480q0 -54 20.5 -95.5t62 -65t105.5 -23.5q104 0 166.5 39.5t90 109t27.5 159.5z" />
    <glyph glyph-name="uni019D" unicode="&#x19d;" horiz-adv-x="2108" 
d="M204 0h556v-48q0 -181 -54.5 -287.5t-144.5 -158t-199 -67t-218 -15.5q-40 0 -118 1t-122 7v408q23 -3 49.5 -1.5t42.5 1.5q77 0 142.5 21.5t65.5 90.5v48zM1976 2048v-2048h-464l-740 1076h-12v-1076h-556v2048h472l728 -1072h16v1072h556z" />
    <glyph glyph-name="uni019E" unicode="&#x19e;" horiz-adv-x="1820" 
d="M692 864v-864h-552v1536h524v-292h16q51 147 177.5 229.5t294.5 82.5q164 0 284.5 -74t186 -204t65.5 -298v-1556h-552v1440q0 114 -57.5 179t-162.5 65q-68 0 -118.5 -29.5t-78 -84t-27.5 -130.5z" />
    <glyph glyph-name="uni019F" unicode="&#x19f;" horiz-adv-x="2240" 
d="M2116 1024q0 -342 -133 -576.5t-359 -355t-504 -120.5q-280 0 -505.5 121.5t-358 356t-132.5 574.5q0 342 132.5 576.5t358 355t505.5 120.5q278 0 504 -120.5t359 -355t133 -576.5zM1544 1024q0 184 -48.5 310.5t-143 192t-232.5 65.5t-232.5 -65.5t-143 -192
t-48.5 -310.5t48.5 -310.5t143 -192t232.5 -65.5t232.5 65.5t143 192t48.5 310.5zM1748 1184v-320h-1256v320h1256z" />
    <glyph glyph-name="uni01A0" unicode="&#x1a0;" horiz-adv-x="2364" 
d="M2032 2116h300q0 -306 -122.5 -477t-401.5 -171v236q138 0 181 108.5t43 303.5zM2116 1024q0 -342 -133 -576.5t-359 -355t-504 -120.5q-280 0 -505.5 121.5t-358 356t-132.5 574.5q0 342 132.5 576.5t358 355t505.5 120.5q278 0 504 -120.5t359 -355t133 -576.5z
M1544 1024q0 184 -48.5 310.5t-143 192t-232.5 65.5t-232.5 -65.5t-143 -192t-48.5 -310.5t48.5 -310.5t143 -192t232.5 -65.5t232.5 65.5t143 192t48.5 310.5z" />
    <glyph glyph-name="uni01A1" unicode="&#x1a1;" horiz-adv-x="1844" 
d="M1568 1608h276q0 -270 -135 -417t-417 -147v172q110 0 170 46.5t83 134t23 211.5zM880 -28q-250 0 -428 99.5t-273 278t-95 414.5t95 414.5t273 278t428 99.5t428 -99.5t273 -278t95 -414.5t-95 -414.5t-273 -278t-428 -99.5zM884 380q70 0 121 47t79 134t28 207
q0 121 -28 207.5t-79 133.5t-121 47q-74 0 -127 -47t-81 -133.5t-28 -207.5q0 -120 28 -207t81 -134t127 -47z" />
    <glyph glyph-name="uni01A2" unicode="&#x1a2;" horiz-adv-x="2764" 
d="M1896 1328v-1084q-56 -56 -170.5 -119.5t-277 -108t-366.5 -44.5q-227 0 -404.5 65.5t-301 191.5t-188 307t-64.5 412v116l548 4v-120q0 -164 37.5 -287.5t131 -192t259.5 -68.5q98 0 168.5 22t107.5 46v860h520zM1896 1804v-1068l-520 -8v856q-49 36 -123.5 50
t-148.5 14q-132 0 -216.5 -36.5t-131.5 -107t-65.5 -172t-18.5 -232.5v-144l-548 4v140q0 233 64.5 414t188 306.5t301 190.5t404.5 65q206 0 368.5 -44t276 -107t169.5 -121zM2632 2048v-2624h-512v1972l-520 -252v596l648 308h384z" />
    <glyph glyph-name="uni01A3" unicode="&#x1a3;" horiz-adv-x="2304" 
d="M848 388q59 0 103 15.5t69 48.5v492h516v-604q-50 -98 -131 -182t-212 -135t-333 -51q-246 0 -410 97.5t-245 269t-81 393.5v24q0 240 81.5 420t245 280t409.5 100q182 0 320.5 -72t229 -171t126.5 -181v-304l-516 48v176q-28 45 -70 68.5t-110 23.5q-94 0 -137.5 -51
t-55 -139t-11.5 -198v-24q0 -80 8.5 -159.5t53 -132t150.5 -52.5zM2184 1536v-2112h-520v1564l-348 -100v436l532 212h336z" />
    <glyph glyph-name="uni01A4" unicode="&#x1a4;" horiz-adv-x="2528" 
d="M564 1196h-488v244q-1 194 85.5 330t245 207t373.5 71h916q228 0 399 -90t266 -253t95 -381q0 -220 -97.5 -381t-273 -248t-409.5 -87h-308v-608h-556v1604h-32q-85 0 -132.5 -40t-66 -100t-17.5 -120v-148zM1368 1040h196q98 0 167.5 34.5t107 98.5t37.5 151
q0 88 -37.5 150.5t-107 96t-167.5 33.5h-196v-564z" />
    <glyph glyph-name="uni01A5" unicode="&#x1a5;" horiz-adv-x="1824" 
d="M688 1536h-548q0 244 135 340t445 96q94 0 164 -11.5t108 -20.5v-340q-17 6 -67.5 16t-108.5 12q-70 2 -99 -20.5t-29 -71.5zM140 -576v2112h548v-268h12q30 78 88 143.5t144 105t200 39.5q152 0 289.5 -81t224 -255t86.5 -452q0 -266 -82.5 -441t-220 -261t-301.5 -86
q-108 0 -192.5 35.5t-144 97t-91.5 139.5h-8v-828h-552zM680 768q0 -112 29.5 -193.5t84 -126t130.5 -44.5t129.5 43.5t82 125t28.5 195.5t-28.5 195.5t-82 125t-129.5 43.5t-130.5 -43.5t-84 -125t-29.5 -195.5z" />
    <glyph glyph-name="uni01A6" unicode="&#x1a6;" horiz-adv-x="2224" 
d="M128 1908v280h536v-280h-536zM128 2048h848q242 0 423 -69.5t281 -205t100 -333.5q0 -186 -55.5 -303t-154 -189t-226.5 -124l-184 -112h-700l-4 428h520q86 0 146 27.5t91 80t31 128.5t-32 129.5t-92 82t-144 28.5h-308v-1616h-540v2048zM1520 -472l-708 1352h568
l716 -1332v-20h-576z" />
    <glyph glyph-name="uni01A7" unicode="&#x1a7;" horiz-adv-x="1876" 
d="M640 1408h-532q1 201 99.5 351.5t279.5 233.5t429 83q244 0 431 -82t293 -228.5t104 -341.5q1 -240 -155.5 -378.5t-428.5 -197.5l-204 -44q-114 -25 -181 -53.5t-96.5 -64t-30.5 -82.5q1 -50 32 -89t91 -61t149 -22q107 0 183 33t118.5 97t46.5 158h528
q-1 -257 -110.5 -421.5t-308 -243.5t-465.5 -79q-259 0 -445 73t-286 213t-101 342q1 117 37.5 216t113.5 178.5t198.5 138.5t290.5 95l168 36q97 21 159 47.5t91 63t26 85.5q0 45 -26.5 80t-81 55.5t-140.5 20.5q-90 0 -149 -25.5t-90 -72.5t-37 -114z" />
    <glyph glyph-name="uni01A8" unicode="&#x1a8;" horiz-adv-x="1656" 
d="M112 1036q11 244 203 382t525 138q220 0 379 -58.5t244.5 -170t84.5 -271.5q2 -181 -115.5 -296t-352.5 -156l-272 -48q-173 -32 -176 -112q2 -48 51 -74t125 -26q94 0 155.5 39.5t72.5 112.5h548q-22 -236 -220.5 -380t-551.5 -144q-212 0 -379 65.5t-263.5 186
t-97.5 284.5q2 170 117.5 271.5t350.5 144.5l312 56q88 16 119 45t29 63q2 48 -49.5 74t-122.5 26q-82 0 -142 -40.5t-66 -111.5h-508z" />
    <glyph glyph-name="uni01A9" unicode="&#x1a9;" horiz-adv-x="1972" 
d="M1736 440v-440h-1300v440h1300zM1728 2064v-444h-1184v444h1184zM1396 1044v-16l-700 -1028h-460v212l596 824l-596 816v212h460z" />
    <glyph glyph-name="uni01AA" unicode="&#x1aa;" horiz-adv-x="2048" 
d="M980 1232l516 280v-1500q0 -99 53 -153.5t147 -54.5q35 0 68.5 3t79.5 9v-404q-58 -12 -115 -16t-125 -4q-286 0 -455 160t-169 460v1220zM204 1512q-1 170 85.5 313t233 229t325.5 86q177 0 324.5 -86t236 -229t87.5 -313q-1 -172 -89 -314.5t-235 -228t-324 -85.5
t-323 84.5t-233 227t-88 316.5zM852 1312q53 0 98 22.5t72 68t26 113.5q-1 99 -60 147.5t-136 48.5q-61 0 -106.5 -22.5t-71 -66t-26.5 -107.5q-1 -102 56 -153t148 -51z" />
    <glyph glyph-name="uni01AB" unicode="&#x1ab;" horiz-adv-x="1152" 
d="M756 368l340 72v-488q0 -252 -135 -388t-377 -136q-58 0 -105 6t-103 18v336q29 -3 58.5 -5.5t69.5 -2.5q48 0 107 12t102 49t43 111v416zM1056 1536v-400h-1012v400h1012zM240 1904h552v-1410q0 -32 11 -53.5t34 -32t59 -10.5q25 0 58.5 6t49.5 10l80 -388
q-37 -11 -105.5 -27t-162.5 -21q-190 -10 -319 39.5t-194 156.5t-63 268v1462z" />
    <glyph glyph-name="uni01AC" unicode="&#x1ac;" horiz-adv-x="2020" 
d="M1944 2048v-448h-616v-1600h-548v1600h-40q-91 0 -137.5 -39.5t-62.5 -100t-16 -124.5v-148h-448v248q0 288 168 450t496 162h1204z" />
    <glyph glyph-name="uni01AD" unicode="&#x1ad;" horiz-adv-x="1512" 
d="M916 1368h-512v240q0 176 49 281.5t135 160t198 72.5t238 18q99 0 158.5 -6t113.5 -18v-340q-18 3 -49.5 7.5t-70.5 4.5q-50 0 -111 -13.5t-105 -52t-44 -114.5v-240zM1172 1488v-368h-956v368h956zM404 1540h512v-1028q0 -72 35 -98t125 -26q42 0 67.5 0.5t52.5 3.5
v-376q-72 -27 -142 -35.5t-142 -8.5q-164 0 -277.5 47.5t-172 150t-58.5 266.5v1104z" />
    <glyph glyph-name="uni01AE" unicode="&#x1ae;" horiz-adv-x="1932" 
d="M1240 0v-48q0 -69 65.5 -92.5t138.5 -23.5h92v-412h-240q-110 0 -217.5 16t-195 68.5t-139.5 159.5t-52 288v44h548zM76 1600v448h1780v-448h-616v-1600h-548v1600h-616z" />
    <glyph glyph-name="uni01AF" unicode="&#x1af;" horiz-adv-x="2460" 
d="M2080 2088h304q0 -210 -52 -362.5t-187 -235t-385 -82.5v244q162 0 228.5 54t79 152t12.5 230zM1344 2048h556v-1312q0 -234 -111.5 -404.5t-310.5 -263t-462 -92.5q-265 0 -464 92.5t-309.5 263t-110.5 404.5v1312h556v-1264q0 -95 42 -169.5t116.5 -116.5t169.5 -42
q96 0 170 42t116 116.5t42 169.5v1264z" />
    <glyph glyph-name="uni01B0" unicode="&#x1b0;" horiz-adv-x="2160" 
d="M1924 1632h272q-1 -188 -59.5 -315.5t-194 -192t-366.5 -64.5v208q149 0 223 41t99 122t26 201zM1152 672v864h552v-1536h-524v292h-16q-50 -147 -175 -229.5t-297 -82.5q-161 0 -281.5 74t-187 204t-67.5 298v980h552v-864q1 -114 58.5 -179t161.5 -65q69 0 119.5 29.5
t78 84t26.5 130.5z" />
    <glyph glyph-name="uni01B1" unicode="&#x1b1;" horiz-adv-x="2224" 
d="M100 916q0 234 95 400t257 268v16h-352v448h868v-560q-92 -36 -159.5 -112t-104 -180t-36.5 -224q0 -150 57 -265.5t157 -181t230 -65.5q98 0 179 37.5t140.5 106t92 162.5t32.5 206q0 120 -36.5 224t-104 180t-159.5 112v560h868v-448h-352v-16q162 -102 257 -268
t95 -400q0 -207 -74 -380t-210 -299t-321 -195.5t-407 -69.5t-407 69.5t-321 195.5t-210 299t-74 380z" />
    <glyph glyph-name="uni01B2" unicode="&#x1b2;" horiz-adv-x="1952" 
d="M980 -28q-249 0 -438.5 87t-295.5 253t-106 404v1332h536v-1332q0 -147 68.5 -231.5t235.5 -84.5q166 0 229 84.5t63 231.5v740q0 105 -30.5 142.5t-133.5 37.5q-32 0 -66.5 -3t-77.5 -9v428q64 13 115.5 18.5t110.5 5.5q304 0 465 -160t161 -460v-740
q0 -236 -102 -402.5t-289.5 -254t-444.5 -87.5z" />
    <glyph glyph-name="uni01B3" unicode="&#x1b3;" horiz-adv-x="2380" 
d="M72 2048h596l500 -832h24l330 544q100 165 237.5 237t290.5 72.5t298 -49.5l-112 -408q-121 33 -181 1.5t-123 -127.5l-476 -730v-756h-552v756z" />
    <glyph glyph-name="uni01B4" unicode="&#x1b4;" horiz-adv-x="1806" 
d="M476 -576q-95 0 -181 14.5t-151 39.5l120 392q68 -24 124.5 -31t97 8t58.5 57l12 28l-540 1604h576l248 -1064h16l256 996q37 142 99.5 240t155 149t217.5 51q73 0 142.5 -8t127.5 -22l-84 -434q-34 7 -58 6.5t-40 -8.5q-21 -10 -36 -29t-26 -51l-462 -1490
q-59 -191 -220.5 -319.5t-451.5 -128.5z" />
    <glyph glyph-name="uni01B5" unicode="&#x1b5;" horiz-adv-x="1956" 
d="M140 0v308l968 1292h-964v448h1672v-308l-968 -1292h964v-448h-1672zM480 948v296h1076v-296h-1076z" />
    <glyph glyph-name="uni01B6" unicode="&#x1b6;" horiz-adv-x="1668" 
d="M156 0v304l672 804v8h-648v420h1300v-336l-612 -772v-8h636v-420h-1348zM288 632v296h1076v-296h-1076z" />
    <glyph glyph-name="uni01B7" unicode="&#x1b7;" horiz-adv-x="1940" 
d="M76 188h560q4 -100 47 -176t114.5 -118t162.5 -42q107 0 181 56.5t112.5 156.5t38.5 229q0 145 -47 249.5t-129 160.5t-188 56h-268v384l496 432v16h-968v456h1636v-400l-628 -540v-20q207 -22 359.5 -127t236.5 -273.5t84 -383.5q0 -198 -67.5 -365t-189.5 -289.5
t-288 -190t-363 -67.5q-255 0 -455 103t-316.5 282.5t-120.5 410.5z" />
    <glyph glyph-name="uni01B8" unicode="&#x1b8;" horiz-adv-x="1940" 
d="M1864 188q-4 -231 -120.5 -410.5t-316.5 -282.5t-455 -103q-197 0 -363 67.5t-288 190t-189.5 289.5t-67.5 365q0 215 84 383.5t237 273.5t359 127v20l-628 540v400h1636v-456h-968v-16l496 -432v-384h-268q-105 0 -187.5 -56t-129.5 -160.5t-47 -249.5q0 -129 38.5 -229
t113 -156.5t180.5 -56.5q91 0 163 42t114.5 118t46.5 176h560z" />
    <glyph glyph-name="uni01B9" unicode="&#x1b9;" horiz-adv-x="1900" 
d="M1796 112q-2 -190 -105.5 -337t-290.5 -231t-440 -84q-239 0 -431 76.5t-304.5 215t-112.5 324.5q0 114 53 232t187 208t376 120v16l-552 484v400h1516v-444h-856v-12l416 -376v-368h-260q-85 0 -151 -25t-103.5 -72.5t-37.5 -114.5q0 -61 31.5 -110t90 -77.5
t138.5 -28.5q77 0 138.5 26t98.5 72t39 106h560z" />
    <glyph glyph-name="uni01BA" unicode="&#x1ba;" horiz-adv-x="1688" 
d="M236 1536h1272v-290l-744 -622h-304v288l260 212h-484v412zM656 -160q1 -57 56 -80.5t128 -23.5q57 0 109 14.5t86 50t37 99.5h480q-1 -118 -81 -235t-235 -195t-380 -78q-213 0 -369.5 61t-242.5 169t-86 250q0 128 60.5 221t189.5 155t334 98q81 14 143 32.5t96.5 48.5
t34.5 79q0 57 -46 87.5t-114 30.5h-244v336h244q207 0 351.5 -66.5t220 -176t76.5 -237.5q-1 -144 -85 -240.5t-218.5 -157t-288.5 -96.5q-94 -22 -150.5 -44t-81 -47t-24.5 -55z" />
    <glyph glyph-name="uni01BB" unicode="&#x1bb;" horiz-adv-x="1820" 
d="M136 0v400l764 632q76 63 130.5 118.5t84 114.5t29.5 131q0 79 -33.5 135t-92.5 86.5t-136 30.5t-135.5 -31t-90.5 -91t-32 -146h-528q0 216 97 372t274 240t415 84q246 0 426.5 -78.5t279 -220.5t98.5 -333q0 -118 -49 -234.5t-176 -257.5t-361 -336l-192 -160v-12h800
v-444h-1572zM692 988v296h1076v-296h-1076z" />
    <glyph glyph-name="uni01BC" unicode="&#x1bc;" horiz-adv-x="1864" 
d="M548 2048v-444h-444v444h444zM1036 -28q-236 0 -418.5 83.5t-287 230.5t-106.5 338h540q3 -106 82.5 -169t189.5 -63q85 0 150 36.5t102 103.5t36 156q1 90 -36 156.5t-102 103t-150 36.5q-88 0 -162.5 -42.5t-109.5 -117.5l-488 96l80 1128h1376v-444h-920l-40 -452h12
q48 93 166 154.5t274 61.5q183 0 326.5 -85t227 -234.5t82.5 -344.5q1 -214 -101.5 -379.5t-287.5 -259t-435 -93.5z" />
    <glyph glyph-name="uni01BD" unicode="&#x1bd;" horiz-adv-x="2060" 
d="M896 624l-476 16l124 848h1140v-392h-724l-36 -196q47 21 127.5 38.5t192.5 17.5q178 0 304 -57.5t193 -166t67 -260.5q0 -144 -73.5 -256t-230 -176t-408.5 -64q-150 0 -284.5 27.5t-238 85.5t-162.5 150t-59 221l516 16q11 -51 69.5 -67.5t158.5 -16.5q98 0 146.5 32.5
t49.5 95.5q-1 54 -57 87t-151 33q-73 0 -120.5 -3.5t-67.5 -12.5zM704 1488v-392h-452v392h452z" />
    <glyph glyph-name="uni01BE" unicode="&#x1be;" horiz-adv-x="1688" 
d="M1044 428q1 49 -37.5 82.5t-99 64.5t-128 72.5t-128.5 105.5t-99.5 163.5t-39.5 247.5v704h520v-716q1 -105 38 -167t95 -100t122.5 -70t122.5 -74.5t94.5 -114t35.5 -190.5q1 -132 -83.5 -237t-240 -166t-368.5 -61q-227 0 -382.5 79.5t-236 197t-81.5 231.5h480
q5 -62 39.5 -98t86 -51t106.5 -15t97 11.5t65 36t22 64.5zM1284 1488v-368h-956v368h956z" />
    <glyph glyph-name="uni01BF" unicode="&#x1bf;" horiz-adv-x="1980" 
d="M776 1252v-1824h-520v2108h488zM744 788l-204 -4q24 153 63.5 292t105 247t165 170.5t242.5 62.5q196 0 331.5 -93.5t206 -262t70.5 -392.5v-76q0 -220 -73 -386.5t-216 -287.5t-352.5 -206t-482.5 -144l-60 404q198 6 347.5 81.5t233 212t83.5 326.5v76
q0 92 -17.5 169.5t-64 124t-134.5 46.5q-100 0 -156.5 -36t-76 -115t-11.5 -209z" />
    <glyph glyph-name="uni01C0" unicode="&#x1c0;" horiz-adv-x="908" 
d="M588 1988v-1988h-268v1988h268z" />
    <glyph glyph-name="uni01C1" unicode="&#x1c1;" horiz-adv-x="1176" 
d="M564 1988v-1988h-268v1988h268zM932 1988v-1988h-268v1988h268z" />
    <glyph glyph-name="uni01C2" unicode="&#x1c2;" horiz-adv-x="1592" 
d="M930 1988v-1988h-268v1988h268zM258 1176v296h1076v-296h-1076zM258 538v296h1076v-296h-1076z" />
    <glyph glyph-name="uni01C3" unicode="&#x1c3;" horiz-adv-x="1000" 
d="M780 2048l-52 -1408h-456l-52 1408h560zM500 -32q-116 0 -198.5 81.5t-81.5 198.5q-1 114 81.5 195t198.5 81q110 0 194.5 -81t85.5 -195q-1 -78 -40.5 -141.5t-102.5 -101t-137 -37.5z" />
    <glyph glyph-name="uni01C5" unicode="&#x1c5;" horiz-adv-x="3732" 
d="M920 0h-788v2048h780q316 0 546.5 -122.5t356 -352t125.5 -549.5t-125 -549.5t-354 -352t-541 -122.5zM688 472h212q152 0 259.5 49t164 169t56.5 334t-57.5 334t-168 169t-270.5 49h-196v-1104zM2220 0v304l672 804v8h-648v420h1300v-336l-612 -772v-8h636v-420h-1348z
M2700 2188l196 -220l196 220h456v-12l-460 -456h-384l-460 456v12h456z" />
    <glyph glyph-name="uni01C6" unicode="&#x1c6;" horiz-adv-x="3256" 
d="M696 -20q-164 0 -301.5 86t-220 261t-82.5 441q0 278 86.5 452t224 255t289.5 81q114 0 200 -39.5t144 -105t88 -143.5h8v780h552v-2048h-548v252h-12q-32 -78 -91.5 -139.5t-144 -97t-192.5 -35.5zM900 404q76 0 130.5 44.5t84 126t29.5 193.5q0 114 -29.5 195.5
t-84 125t-130.5 43.5t-129.5 -43.5t-82 -125t-28.5 -195.5t28.5 -195.5t82 -125t129.5 -43.5zM1744 0v304l672 804v8h-648v420h1300v-336l-612 -772v-8h636v-420h-1348zM2224 2188l196 -220l196 220h456v-12l-460 -456h-384l-460 456v12h456z" />
    <glyph glyph-name="uni01C7" unicode="&#x1c7;" horiz-adv-x="3264" 
d="M132 0v2048h556v-1600h828v-448h-1384zM2584 2048h548v-1404q-1 -200 -100.5 -351.5t-274 -236t-401.5 -84.5q-197 0 -360 68.5t-260 216t-96 383.5h556q3 -77 26.5 -130t66 -79.5t103.5 -26.5q62 0 104.5 27t64.5 80.5t23 132.5v1404z" />
    <glyph glyph-name="uni01C8" unicode="&#x1c8;" horiz-adv-x="2440" 
d="M132 0v2048h556v-1600h828v-448h-1384zM1748 1536h552v-1588q0 -202 -84.5 -316t-236.5 -161t-355 -47q-30 0 -55.5 1t-56.5 3v408q20 -2 34.5 -3t29.5 -1q99 0 135.5 30.5t36.5 97.5v1576zM2024 1696q-112 0 -192 74t-80 178t80 178t192 74q113 0 192.5 -74t79.5 -178
t-79.5 -178t-192.5 -74z" />
    <glyph glyph-name="uni01C9" unicode="&#x1c9;" horiz-adv-x="1640" 
d="M692 2048v-2048h-552v2048h552zM876 1536h552v-1588q0 -202 -84.5 -316t-236.5 -161t-355 -47q-30 0 -55.5 1t-56.5 3v408q20 -2 34.5 -3t29.5 -1q99 0 135.5 30.5t36.5 97.5v1576zM1152 1696q-112 0 -192 74t-80 178t80 178t192 74q113 0 192.5 -74t79.5 -178
t-79.5 -178t-192.5 -74z" />
    <glyph glyph-name="uni01CA" unicode="&#x1ca;" horiz-adv-x="3692" 
d="M1904 2048v-2048h-464l-740 1076h-12v-1076h-556v2048h472l728 -1072h16v1072h556zM3012 2048h548v-1404q-1 -200 -100.5 -351.5t-274 -236t-401.5 -84.5q-197 0 -360 68.5t-260 216t-96 383.5h556q3 -77 26.5 -130t66 -79.5t103.5 -26.5q62 0 104.5 27t64.5 80.5
t23 132.5v1404z" />
    <glyph glyph-name="uni01CB" unicode="&#x1cb;" horiz-adv-x="2772" 
d="M1904 2048v-2048h-464l-740 1076h-12v-1076h-556v2048h472l728 -1072h16v1072h556zM2080 1536h552v-1588q0 -202 -84.5 -316t-236.5 -161t-355 -47q-30 0 -55.5 1t-56.5 3v408q20 -2 34.5 -3t29.5 -1q99 0 135.5 30.5t36.5 97.5v1576zM2356 1696q-112 0 -192 74t-80 178
t80 178t192 74q113 0 192.5 -74t79.5 -178t-79.5 -178t-192.5 -74z" />
    <glyph glyph-name="uni01CC" unicode="&#x1cc;" horiz-adv-x="2652" 
d="M692 864v-864h-552v1536h524v-292h16q50 146 176.5 229t295.5 83q163 0 283.5 -74.5t187 -204.5t65.5 -297v-980h-552v864q1 114 -57.5 179t-162.5 65q-68 0 -118.5 -29.5t-77.5 -84t-28 -130.5zM1960 1536h552v-1588q0 -202 -84.5 -316t-236.5 -161t-355 -47
q-30 0 -55.5 1t-56.5 3v408q20 -2 34.5 -3t29.5 -1q99 0 135.5 30.5t36.5 97.5v1576zM2236 1696q-112 0 -192 74t-80 178t80 178t192 74q113 0 192.5 -74t79.5 -178t-79.5 -178t-192.5 -74z" />
    <glyph glyph-name="uni01CD" unicode="&#x1cd;" horiz-adv-x="2240" 
d="M664 0h-600l676 2048h760l676 -2048h-600l-448 1484h-16zM552 808h1128v-416h-1128v416zM924 2700l196 -220l196 220h456v-12l-460 -456h-384l-460 456v12h456z" />
    <glyph glyph-name="uni01CE" unicode="&#x1ce;" horiz-adv-x="1664" 
d="M568 -24q-147 0 -259.5 48.5t-176.5 147.5t-64 252q0 126 43 215.5t120 146.5t179.5 87t221.5 39q129 10 207.5 24.5t113.5 41t35 70.5v4q0 60 -46 92t-118 32q-79 0 -128.5 -34.5t-59.5 -105.5h-508q10 140 89.5 258.5t232.5 190t382 71.5q165 0 296 -38.5t223 -107
t140.5 -160t48.5 -198.5v-1052h-516v216h-12q-46 -86 -111.5 -139t-149 -77t-183.5 -24zM748 324q63 0 118.5 26t90.5 75t35 119v128q-22 -9 -46.5 -17t-52 -15t-58 -13t-63.5 -11q-64 -10 -104.5 -32.5t-60 -55t-19.5 -72.5q0 -64 45 -98t115 -34zM652 2188l196 -220
l196 220h456v-12l-460 -456h-384l-460 456v12h456z" />
    <glyph glyph-name="uni01CF" unicode="&#x1cf;" horiz-adv-x="820" 
d="M688 2048v-2048h-556v2048h556zM216 2700l196 -220l196 220h456v-12l-460 -456h-384l-460 456v12h456z" />
    <glyph glyph-name="uni01D0" unicode="&#x1d0;" horiz-adv-x="832" 
d="M140 0v1536h552v-1536h-552zM220 2188l196 -220l196 220h456v-12l-460 -456h-384l-460 456v12h456z" />
    <glyph glyph-name="uni01D1" unicode="&#x1d1;" horiz-adv-x="2240" 
d="M2116 1024q0 -342 -133 -576.5t-359 -355t-504 -120.5q-280 0 -505.5 121.5t-358 356t-132.5 574.5q0 342 132.5 576.5t358 355t505.5 120.5q278 0 504 -120.5t359 -355t133 -576.5zM1544 1024q0 184 -48.5 310.5t-143 192t-232.5 65.5t-232.5 -65.5t-143 -192
t-48.5 -310.5t48.5 -310.5t143 -192t232.5 -65.5t232.5 65.5t143 192t48.5 310.5zM924 2700l196 -220l196 220h456v-12l-460 -456h-384l-460 456v12h456z" />
    <glyph glyph-name="uni01D2" unicode="&#x1d2;" horiz-adv-x="1760" 
d="M880 -28q-250 0 -428 99.5t-273 278t-95 414.5t95 414.5t273 278t428 99.5t428 -99.5t273 -278t95 -414.5t-95 -414.5t-273 -278t-428 -99.5zM884 380q70 0 121 47t79 134t28 207q0 121 -28 207.5t-79 133.5t-121 47q-74 0 -127 -47t-81 -133.5t-28 -207.5
q0 -120 28 -207t81 -134t127 -47zM684 2188l196 -220l196 220h456v-12l-460 -456h-384l-460 456v12h456z" />
    <glyph glyph-name="uni01D3" unicode="&#x1d3;" horiz-adv-x="2032" 
d="M1344 2048h556v-1312q0 -234 -111.5 -404.5t-310.5 -263t-462 -92.5q-265 0 -464 92.5t-309.5 263t-110.5 404.5v1312h556v-1264q0 -95 42 -169.5t116.5 -116.5t169.5 -42q96 0 170 42t116 116.5t42 169.5v1264zM820 2700l196 -220l196 220h456v-12l-460 -456h-384
l-460 456v12h456z" />
    <glyph glyph-name="uni01D4" unicode="&#x1d4;" horiz-adv-x="1828" 
d="M1136 672v864h552v-1536h-524v292h-16q-50 -147 -175 -229.5t-297 -82.5q-161 0 -281.5 74t-187 204t-67.5 298v980h552v-864q1 -114 58.5 -179t161.5 -65q69 0 119.5 29.5t78 84t26.5 130.5zM720 2188l196 -220l196 220h456v-12l-460 -456h-384l-460 456v12h456z" />
    <glyph glyph-name="uni01D5" unicode="&#x1d5;" horiz-adv-x="2032" 
d="M1344 2048h556v-1312q0 -234 -111.5 -404.5t-310.5 -263t-462 -92.5q-265 0 -464 92.5t-309.5 263t-110.5 404.5v1312h556v-1264q0 -95 42 -169.5t116.5 -116.5t169.5 -42q96 0 170 42t116 116.5t42 169.5v1264zM700 2228q-102 0 -173 68t-71 164t71 164t173 68
q99 0 169.5 -68t70.5 -164t-70.5 -164t-169.5 -68zM1336 2228q-102 0 -173 68t-71 164t71 164t173 68q99 0 169.5 -68t70.5 -164t-70.5 -164t-169.5 -68zM1516 3072v-252h-1000v252h1000z" />
    <glyph glyph-name="uni01D6" unicode="&#x1d6;" horiz-adv-x="1828" 
d="M1136 672v864h552v-1536h-524v292h-16q-50 -147 -175 -229.5t-297 -82.5q-161 0 -281.5 74t-187 204t-67.5 298v980h552v-864q1 -114 58.5 -179t161.5 -65q69 0 119.5 29.5t78 84t26.5 130.5zM600 1716q-102 0 -173 68t-71 164t71 164t173 68q99 0 169.5 -68t70.5 -164
t-70.5 -164t-169.5 -68zM1236 1716q-102 0 -173 68t-71 164t71 164t173 68q99 0 169.5 -68t70.5 -164t-70.5 -164t-169.5 -68zM1416 2560v-252h-1000v252h1000z" />
    <glyph glyph-name="uni01D7" unicode="&#x1d7;" horiz-adv-x="2032" 
d="M1344 2048h556v-1312q0 -234 -111.5 -404.5t-310.5 -263t-462 -92.5q-265 0 -464 92.5t-309.5 263t-110.5 404.5v1312h556v-1264q0 -95 42 -169.5t116.5 -116.5t169.5 -42q96 0 170 42t116 116.5t42 169.5v1264zM812 2712l266 386h452l-346 -386h-372zM721 2176
q-95 0 -161.5 61t-66.5 148t66.5 148.5t161.5 61.5q92 0 158 -61.5t66 -148.5t-66 -148t-158 -61zM1315 2176q-95 0 -161.5 61t-66.5 148t66.5 148.5t161.5 61.5q93 0 159 -61.5t66 -148.5t-66 -148t-159 -61z" />
    <glyph glyph-name="uni01D8" unicode="&#x1d8;" horiz-adv-x="1828" 
d="M1136 672v864h552v-1536h-524v292h-16q-50 -147 -175 -229.5t-297 -82.5q-161 0 -281.5 74t-187 204t-67.5 298v980h552v-864q1 -114 58.5 -179t161.5 -65q69 0 119.5 29.5t78 84t26.5 130.5zM600 1716q-102 0 -173 68t-71 164t71 164t173 68q99 0 169.5 -68t70.5 -164
t-70.5 -164t-169.5 -68zM1236 1716q-102 0 -173 68t-71 164t71 164t173 68q99 0 169.5 -68t70.5 -164t-70.5 -164t-169.5 -68zM732 2240l192 448h472l-300 -448h-364z" />
    <glyph glyph-name="uni01D9" unicode="&#x1d9;" horiz-adv-x="2032" 
d="M1344 2048h556v-1312q0 -234 -111.5 -404.5t-310.5 -263t-462 -92.5q-265 0 -464 92.5t-309.5 263t-110.5 404.5v1312h556v-1264q0 -95 42 -169.5t116.5 -116.5t169.5 -42q96 0 170 42t116 116.5t42 169.5v1264zM508 2440q0 69 59.5 118.5t152.5 49.5q96 0 156 -49.5
t60 -118.5q0 -75 -61.5 -123.5t-154.5 -48.5q-90 0 -151 48.5t-61 123.5zM1096 2440q0 69 60 118.5t156 49.5q90 0 153 -48t63 -120q0 -75 -63 -123.5t-153 -48.5q-96 0 -156 50t-60 122zM844 2976l176 -140l176 140h440v-20l-428 -328h-372l-436 336v12h444z" />
    <glyph glyph-name="uni01DA" unicode="&#x1da;" horiz-adv-x="1828" 
d="M1136 672v864h552v-1536h-524v292h-16q-50 -147 -175 -229.5t-297 -82.5q-161 0 -281.5 74t-187 204t-67.5 298v980h552v-864q1 -114 58.5 -179t161.5 -65q69 0 119.5 29.5t78 84t26.5 130.5zM304 1892q0 81 67 138.5t157 57.5q93 0 160.5 -57.5t67.5 -138.5
q0 -84 -69 -140t-159 -56t-157 57.5t-67 138.5zM1072 1892q0 81 67 138.5t157 57.5q93 0 160.5 -57.5t67.5 -138.5t-67.5 -138.5t-160.5 -57.5q-90 0 -157 57.5t-67 138.5zM704 2584l212 -164l216 164h436v-16l-484 -392h-336l-488 396v12h444z" />
    <glyph glyph-name="uni01DB" unicode="&#x1db;" horiz-adv-x="2032" 
d="M1344 2048h556v-1312q0 -234 -111.5 -404.5t-310.5 -263t-462 -92.5q-265 0 -464 92.5t-309.5 263t-110.5 404.5v1312h556v-1264q0 -95 42 -169.5t116.5 -116.5t169.5 -42q96 0 170 42t116 116.5t42 169.5v1264zM976 2860l184 -232h-256l-256 232h328zM504 2440
q-1 69 60 118.5t152 49.5q95 0 157 -49.5t63 -118.5q-1 -75 -64.5 -123.5t-155.5 -48.5q-91 0 -152 48.5t-60 123.5zM1092 2440q-1 72 62 120t154 48q95 0 155 -49.5t61 -118.5q-1 -72 -61 -122t-155 -50q-91 0 -154 48.5t-62 123.5z" />
    <glyph glyph-name="uni01DC" unicode="&#x1dc;" horiz-adv-x="1828" 
d="M1136 672v864h552v-1536h-524v292h-16q-50 -147 -175 -229.5t-297 -82.5q-161 0 -281.5 74t-187 204t-67.5 298v980h552v-864q1 -114 58.5 -179t161.5 -65q69 0 119.5 29.5t78 84t26.5 130.5zM300 1892q0 81 67 138.5t157 57.5q93 0 160.5 -57.5t67.5 -138.5
t-67.5 -138.5t-160.5 -57.5q-90 0 -157 57.5t-67 138.5zM1068 1892q0 84 69 140t159 56t157 -57.5t67 -138.5t-67 -138.5t-157 -57.5q-93 0 -160.5 57.5t-67.5 138.5zM868 2584l288 -440h-416l-412 440h540z" />
    <glyph glyph-name="uni01DD" unicode="&#x1dd;" horiz-adv-x="1712" 
d="M836 1564q246 0 423.5 -94.5t273 -271.5t95.5 -426q0 -238 -96 -416t-271 -277t-413 -99q-174 0 -315 54t-241 156.5t-154 248.5t-54 329v128h1372v-304h-864q2 -66 34 -116.5t87 -79t123 -28.5t123.5 28.5t89.5 79t35 116.5v328q0 74 -31 132t-89 91t-140 33
q-56 0 -104 -16t-82 -46t-50 -74h-504q26 160 123 277.5t256.5 182t372.5 64.5z" />
    <glyph glyph-name="uni01DE" unicode="&#x1de;" horiz-adv-x="2240" 
d="M664 0h-600l676 2048h760l676 -2048h-600l-448 1484h-16zM552 808h1128v-416h-1128v416zM804 2228q-102 0 -173 68t-71 164t71 164t173 68q99 0 169.5 -68t70.5 -164t-70.5 -164t-169.5 -68zM1440 2228q-102 0 -173 68t-71 164t71 164t173 68q99 0 169.5 -68t70.5 -164
t-70.5 -164t-169.5 -68zM1620 3072v-252h-1000v252h1000z" />
    <glyph glyph-name="uni01DF" unicode="&#x1df;" horiz-adv-x="1664" 
d="M568 -24q-147 0 -259.5 48.5t-176.5 147.5t-64 252q0 126 43 215.5t120 146.5t179.5 87t221.5 39q129 10 207.5 24.5t113.5 41t35 70.5v4q0 60 -46 92t-118 32q-79 0 -128.5 -34.5t-59.5 -105.5h-508q10 140 89.5 258.5t232.5 190t382 71.5q165 0 296 -38.5t223 -107
t140.5 -160t48.5 -198.5v-1052h-516v216h-12q-46 -86 -111.5 -139t-149 -77t-183.5 -24zM748 324q63 0 118.5 26t90.5 75t35 119v128q-22 -9 -46.5 -17t-52 -15t-58 -13t-63.5 -11q-64 -10 -104.5 -32.5t-60 -55t-19.5 -72.5q0 -64 45 -98t115 -34zM532 1716q-102 0 -173 68
t-71 164t71 164t173 68q99 0 169.5 -68t70.5 -164t-70.5 -164t-169.5 -68zM1168 1716q-102 0 -173 68t-71 164t71 164t173 68q99 0 169.5 -68t70.5 -164t-70.5 -164t-169.5 -68zM1348 2560v-252h-1000v252h1000z" />
    <glyph glyph-name="uni01E0" unicode="&#x1e0;" horiz-adv-x="2240" 
d="M664 0h-600l676 2048h760l676 -2048h-600l-448 1484h-16zM552 808h1128v-416h-1128v416zM1121 2227q-101 0 -172.5 68.5t-71.5 163.5q0 97 71.5 164.5t172.5 67.5t172.5 -67.5t71.5 -164.5q0 -95 -71.5 -163.5t-172.5 -68.5zM1620 3072v-252h-1000v252h1000z" />
    <glyph glyph-name="uni01E1" unicode="&#x1e1;" horiz-adv-x="1664" 
d="M568 -24q-147 0 -259.5 48.5t-176.5 147.5t-64 252q0 126 43 215.5t120 146.5t179.5 87t221.5 39q129 10 207.5 24.5t113.5 41t35 70.5v4q0 60 -46 92t-118 32q-79 0 -128.5 -34.5t-59.5 -105.5h-508q10 140 89.5 258.5t232.5 190t382 71.5q165 0 296 -38.5t223 -107
t140.5 -160t48.5 -198.5v-1052h-516v216h-12q-46 -86 -111.5 -139t-149 -77t-183.5 -24zM748 324q63 0 118.5 26t90.5 75t35 119v128q-22 -9 -46.5 -17t-52 -15t-58 -13t-63.5 -11q-64 -10 -104.5 -32.5t-60 -55t-19.5 -72.5q0 -64 45 -98t115 -34zM1348 2548v-252h-1000
v252h1000zM849 1703q-101 0 -172.5 68.5t-71.5 163.5q0 97 71.5 164.5t172.5 67.5t172.5 -67.5t71.5 -164.5q0 -95 -71.5 -163.5t-172.5 -68.5z" />
    <glyph glyph-name="uni01E2" unicode="&#x1e2;" horiz-adv-x="2976" 
d="M64 0l800 2048h1968v-448h-920v-352h844v-448h-844v-352h916v-448h-1472v1484h-140l-540 -1484h-612zM556 392v416h1128v-416h-1128zM2360 2560v-252h-1000v252h1000z" />
    <glyph glyph-name="uni01E3" unicode="&#x1e3;" horiz-adv-x="2552" 
d="M1760 -28q-187 0 -341.5 71.5t-226.5 224.5l-52 996q108 162 248 227t316 65q174 0 315 -54t241 -156.5t154 -248.5t54 -329v-128h-1320v304h812q-2 66 -34.5 116.5t-87 79t-122.5 28.5t-123.5 -28.5t-89 -79t-35.5 -116.5v-328q0 -74 31 -132t89 -91t140 -33
q57 0 104.5 16t81.5 46.5t50 73.5h504q-26 -160 -123 -277.5t-247.5 -182t-337.5 -64.5zM748 324q63 0 118.5 26t90.5 75t35 119v128q-22 -9 -46.5 -17t-52 -15t-58 -13t-63.5 -11q-64 -10 -104.5 -32.5t-60 -55t-19.5 -72.5q0 -64 45 -98t115 -34zM608 -24
q-167 0 -288.5 48.5t-186.5 148t-65 251.5q0 126 43 215t120.5 146t180 87.5t220.5 39.5q130 10 208 25t113 41t35 70v4q0 61 -45.5 92.5t-118.5 31.5q-78 0 -128.5 -34t-59.5 -106h-508q10 140 89 258.5t234 190t393 71.5q77 0 141.5 -14t117.5 -40t92.5 -64t64.5 -86
l-24 -1120h-32q-48 -86 -139.5 -143t-209.5 -85t-247 -28zM1740 2048v-252h-1000v252h1000z" />
    <glyph glyph-name="uni01E4" unicode="&#x1e4;" horiz-adv-x="2176" 
d="M2112 688v-124h-972v124h972zM1462 1372q-13 53 -41 93.5t-69.5 69t-96 43t-119.5 14.5q-140 0 -238.5 -67t-150 -193t-51.5 -304q0 -180 49 -308t146 -196t241 -68q127 0 211.5 37t126.5 105t42 160l96 -10h-468v396h908v-284q0 -280 -118.5 -478.5t-326 -304
t-475.5 -105.5q-299 0 -525 127t-352.5 362t-126.5 559q0 254 77.5 450t215.5 331.5t319 205t388 69.5q182 0 338.5 -51.5t277 -146t194.5 -223.5t90 -283h-562z" />
    <glyph glyph-name="uni01E5" unicode="&#x1e5;" horiz-adv-x="1828" 
d="M880 -608q-231 0 -395.5 65.5t-255 180t-101.5 262.5h532q8 -49 40 -79t82.5 -43.5t113.5 -13.5q107 0 177.5 52t70.5 188v260h-16q-30 -78 -92 -132.5t-149 -83t-191 -28.5q-164 0 -301.5 76t-220 241t-82.5 431q0 278 86.5 452t224 255t289.5 81q114 0 200 -39.5
t144 -105t88 -143.5h12v268h552v-1532q0 -195 -100.5 -331.5t-282.5 -208.5t-425 -72zM900 412q76 0 130.5 42.5t84 122t29.5 191.5q0 114 -29.5 195.5t-84 125t-130.5 43.5t-129.5 -43.5t-82 -125t-28.5 -195.5t28.5 -193.5t82 -121t129.5 -41.5zM868 644v296h1076v-296
h-1076z" />
    <glyph glyph-name="uni01E6" unicode="&#x1e6;" horiz-adv-x="2176" 
d="M1462 1372q-13 53 -41 93.5t-69.5 69t-96 43t-119.5 14.5q-140 0 -238.5 -67t-150 -193t-51.5 -304q0 -180 49 -308t146 -196t241 -68q127 0 211.5 37t126.5 105t42 160l96 -10h-468v396h908v-284q0 -280 -118.5 -478.5t-326 -304t-475.5 -105.5q-299 0 -525 127
t-352.5 362t-126.5 559q0 254 77.5 450t215.5 331.5t319 205t388 69.5q182 0 338.5 -51.5t277 -146t194.5 -223.5t90 -283h-562zM912 2700l196 -220l196 220h456v-12l-460 -456h-384l-460 456v12h456z" />
    <glyph glyph-name="uni01E7" unicode="&#x1e7;" horiz-adv-x="1828" 
d="M880 -608q-231 0 -395.5 65.5t-255 180t-101.5 262.5h532q8 -49 40 -79t82.5 -43.5t113.5 -13.5q107 0 177.5 52t70.5 188v260h-16q-30 -78 -92 -132.5t-149 -83t-191 -28.5q-164 0 -301.5 76t-220 241t-82.5 431q0 278 86.5 452t224 255t289.5 81q114 0 200 -39.5
t144 -105t88 -143.5h12v268h552v-1532q0 -195 -100.5 -331.5t-282.5 -208.5t-425 -72zM900 412q76 0 130.5 42.5t84 122t29.5 191.5q0 114 -29.5 195.5t-84 125t-130.5 43.5t-129.5 -43.5t-82 -125t-28.5 -195.5t28.5 -193.5t82 -121t129.5 -41.5zM684 2188l196 -220
l196 220h456v-12l-460 -456h-384l-460 456v12h456z" />
    <glyph glyph-name="uni01E8" unicode="&#x1e8;" horiz-adv-x="2012" 
d="M132 0v2048h556v-828h28l616 828h648l-692 -912l708 -1136h-664l-460 768l-184 -240v-528h-556zM800 2700l196 -220l196 220h456v-12l-460 -456h-384l-460 456v12h456z" />
    <glyph glyph-name="uni01E9" unicode="&#x1e9;" horiz-adv-x="1708" 
d="M636 364l4 656h72l372 516h620l-624 -804h-156zM140 0v2048h552v-2048h-552zM1088 0l-352 608l360 392l624 -1000h-632zM220 2700l196 -220l196 220h456v-12l-460 -456h-384l-460 456v12h456z" />
    <glyph glyph-name="uni01EA" unicode="&#x1ea;" horiz-adv-x="2240" 
d="M2116 1024q0 -342 -133 -576.5t-359 -355t-504 -120.5q-280 0 -505.5 121.5t-358 356t-132.5 574.5q0 342 132.5 576.5t358 355t505.5 120.5q278 0 504 -120.5t359 -355t133 -576.5zM1544 1024q0 184 -48.5 310.5t-143 192t-232.5 65.5t-232.5 -65.5t-143 -192
t-48.5 -310.5t48.5 -310.5t143 -192t232.5 -65.5t232.5 65.5t143 192t48.5 310.5zM1204 -548q-139 0 -234.5 69t-133.5 195q-26 86 -20.5 175t40 158t92.5 95l456 -136q-97 -30 -149 -65t-51 -95q-1 -51 25.5 -77.5t66.5 -26.5q26 0 45.5 6.5t38.5 9.5l64 -248
q-40 -21 -100 -40.5t-140 -19.5z" />
    <glyph glyph-name="uni01EB" unicode="&#x1eb;" horiz-adv-x="1760" 
d="M880 -28q-250 0 -428 99.5t-273 278t-95 414.5t95 414.5t273 278t428 99.5t428 -99.5t273 -278t95 -414.5t-95 -414.5t-273 -278t-428 -99.5zM884 380q70 0 121 47t79 134t28 207q0 121 -28 207.5t-79 133.5t-121 47q-74 0 -127 -47t-81 -133.5t-28 -207.5
q0 -120 28 -207t81 -134t127 -47zM908 -556q-139 0 -234.5 69t-133.5 195q-26 86 -20.5 175t40 158t92.5 95l456 -136q-97 -30 -149 -65t-51 -95q-1 -51 25.5 -77.5t66.5 -26.5q26 0 45.5 6.5t38.5 9.5l64 -248q-40 -21 -100 -40.5t-140 -19.5z" />
    <glyph glyph-name="uni01EC" unicode="&#x1ec;" horiz-adv-x="2240" 
d="M2116 1024q0 -342 -133 -576.5t-359 -355t-504 -120.5q-280 0 -505.5 121.5t-358 356t-132.5 574.5q0 342 132.5 576.5t358 355t505.5 120.5q278 0 504 -120.5t359 -355t133 -576.5zM1544 1024q0 184 -48.5 310.5t-143 192t-232.5 65.5t-232.5 -65.5t-143 -192
t-48.5 -310.5t48.5 -310.5t143 -192t232.5 -65.5t232.5 65.5t143 192t48.5 310.5zM1204 -548q-139 0 -234.5 69t-133.5 195q-26 86 -20.5 175t40 158t92.5 95l456 -136q-97 -30 -149 -65t-51 -95q-1 -51 25.5 -77.5t66.5 -26.5q26 0 45.5 6.5t38.5 9.5l64 -248
q-40 -21 -100 -40.5t-140 -19.5zM1620 2560v-252h-1000v252h1000z" />
    <glyph glyph-name="uni01ED" unicode="&#x1ed;" horiz-adv-x="1760" 
d="M880 -28q-250 0 -428 99.5t-273 278t-95 414.5t95 414.5t273 278t428 99.5t428 -99.5t273 -278t95 -414.5t-95 -414.5t-273 -278t-428 -99.5zM884 380q70 0 121 47t79 134t28 207q0 121 -28 207.5t-79 133.5t-121 47q-74 0 -127 -47t-81 -133.5t-28 -207.5
q0 -120 28 -207t81 -134t127 -47zM908 -556q-139 0 -234.5 69t-133.5 195q-26 86 -20.5 175t40 158t92.5 95l456 -136q-97 -30 -149 -65t-51 -95q-1 -51 25.5 -77.5t66.5 -26.5q26 0 45.5 6.5t38.5 9.5l64 -248q-40 -21 -100 -40.5t-140 -19.5zM1380 2048v-252h-1000v252
h1000z" />
    <glyph glyph-name="uni01EE" unicode="&#x1ee;" horiz-adv-x="1940" 
d="M76 188h560q4 -100 47 -176t114.5 -118t162.5 -42q107 0 181 56.5t112.5 156.5t38.5 229q0 145 -47 249.5t-129 160.5t-188 56h-268v384l496 432v16h-968v456h1636v-400l-628 -540v-20q207 -22 359.5 -127t236.5 -273.5t84 -383.5q0 -198 -67.5 -365t-189.5 -289.5
t-288 -190t-363 -67.5q-255 0 -455 103t-316.5 282.5t-120.5 410.5zM776 2700l196 -220l196 220h456v-12l-460 -456h-384l-460 456v12h456z" />
    <glyph glyph-name="uni01EF" unicode="&#x1ef;" horiz-adv-x="1900" 
d="M104 112h560q2 -60 39 -106t99 -72t138 -26q80 0 138.5 28.5t90 77.5t31.5 110q0 67 -37.5 114.5t-103.5 72.5t-151 25h-260v368l416 376v12h-856v444h1516v-400l-552 -484v-16q182 -22 301.5 -80t188 -137.5t97.5 -168.5t29 -174q0 -186 -112.5 -324.5t-304.5 -215
t-431 -76.5q-253 0 -440 84t-290.5 231t-105.5 337zM752 2188l196 -220l196 220h456v-12l-460 -456h-384l-460 456v12h456z" />
    <glyph glyph-name="uni01F0" unicode="&#x1f0;" horiz-adv-x="832" 
d="M140 1536h552v-1588q0 -202 -84.5 -316t-236.5 -161t-355 -47q-30 0 -55.5 1t-56.5 3v408q20 -2 34.5 -3t29.5 -1q99 0 135.5 30.5t36.5 97.5v1576zM220 2188l196 -220l196 220h456v-12l-460 -456h-384l-460 456v12h456z" />
    <glyph glyph-name="uni01F1" unicode="&#x1f1;" horiz-adv-x="4020" 
d="M920 0h-788v2048h780q316 0 546.5 -122.5t356 -352t125.5 -549.5t-125 -549.5t-354 -352t-541 -122.5zM688 472h212q152 0 259.5 49t164 169t56.5 334t-57.5 334t-168 169t-270.5 49h-196v-1104zM2204 0v308l968 1292h-964v448h1672v-308l-968 -1292h964v-448h-1672z" />
    <glyph glyph-name="uni01F2" unicode="&#x1f2;" horiz-adv-x="3732" 
d="M920 0h-788v2048h780q316 0 546.5 -122.5t356 -352t125.5 -549.5t-125 -549.5t-354 -352t-541 -122.5zM688 472h212q152 0 259.5 49t164 169t56.5 334t-57.5 334t-168 169t-270.5 49h-196v-1104zM2220 0v304l672 804v8h-648v420h1300v-336l-612 -772v-8h636v-420h-1348z
" />
    <glyph glyph-name="uni01F3" unicode="&#x1f3;" horiz-adv-x="3256" 
d="M696 -20q-164 0 -301.5 86t-220 261t-82.5 441q0 278 86.5 452t224 255t289.5 81q114 0 200 -39.5t144 -105t88 -143.5h8v780h552v-2048h-548v252h-12q-32 -78 -91.5 -139.5t-144 -97t-192.5 -35.5zM900 404q76 0 130.5 44.5t84 126t29.5 193.5q0 114 -29.5 195.5
t-84 125t-130.5 43.5t-129.5 -43.5t-82 -125t-28.5 -195.5t28.5 -195.5t82 -125t129.5 -43.5zM1744 0v304l672 804v8h-648v420h1300v-336l-612 -772v-8h636v-420h-1348z" />
    <glyph glyph-name="uni01F4" unicode="&#x1f4;" horiz-adv-x="2176" 
d="M1462 1372q-13 53 -41 93.5t-69.5 69t-96 43t-119.5 14.5q-140 0 -238.5 -67t-150 -193t-51.5 -304q0 -180 49 -308t146 -196t241 -68q127 0 211.5 37t126.5 105t42 160l96 -10h-468v396h908v-284q0 -280 -118.5 -478.5t-326 -304t-475.5 -105.5q-299 0 -525 127
t-352.5 362t-126.5 559q0 254 77.5 450t215.5 331.5t319 205t388 69.5q182 0 338.5 -51.5t277 -146t194.5 -223.5t90 -283h-562zM924 2240l192 448h472l-300 -448h-364z" />
    <glyph glyph-name="uni01F5" unicode="&#x1f5;" horiz-adv-x="1828" 
d="M880 -608q-231 0 -395.5 65.5t-255 180t-101.5 262.5h532q8 -49 40 -79t82.5 -43.5t113.5 -13.5q107 0 177.5 52t70.5 188v260h-16q-30 -78 -92 -132.5t-149 -83t-191 -28.5q-164 0 -301.5 76t-220 241t-82.5 431q0 278 86.5 452t224 255t289.5 81q114 0 200 -39.5
t144 -105t88 -143.5h12v268h552v-1532q0 -195 -100.5 -331.5t-282.5 -208.5t-425 -72zM900 412q76 0 130.5 42.5t84 122t29.5 191.5q0 114 -29.5 195.5t-84 125t-130.5 43.5t-129.5 -43.5t-82 -125t-28.5 -195.5t28.5 -193.5t82 -121t129.5 -41.5zM696 1728l192 448h472
l-300 -448h-364z" />
    <glyph glyph-name="uni01F6" unicode="&#x1f6;" horiz-adv-x="3180" 
d="M2232 -28q-250 0 -431 90t-279 257t-98 397v84h-736v-800h-556v2048h556v-800h736v800h556v-1332q0 -135 67.5 -211.5t184.5 -76.5t184.5 76.5t67.5 211.5v752h556v-752q0 -230 -97 -397t-278 -257t-433 -90z" />
    <glyph glyph-name="uni01F7" unicode="&#x1f7;" horiz-adv-x="2328" 
d="M820 2048v-2624h-532v2624h532zM596 -264v436q221 81 389 172t281.5 197.5t171 236t58.5 286.5v76q0 78 -7.5 166t-37.5 166t-95.5 127t-181.5 49q-109 0 -212.5 -44.5t-182 -118t-111.5 -161.5v568q59 78 189 131t313 53q254 0 452.5 -110t312 -320t113.5 -510v-72
q-1 -214 -90.5 -405.5t-269.5 -359t-452.5 -308.5t-639.5 -255z" />
    <glyph glyph-name="uni01F8" unicode="&#x1f8;" horiz-adv-x="2036" 
d="M1904 2048v-2048h-464l-740 1076h-12v-1076h-556v2048h472l728 -1072h16v1072h556zM840 2240l-300 448h472l192 -448h-364z" />
    <glyph glyph-name="uni01F9" unicode="&#x1f9;" horiz-adv-x="1820" 
d="M692 864v-864h-552v1536h524v-292h16q50 146 176.5 229t295.5 83q163 0 283.5 -74.5t187 -204.5t65.5 -297v-980h-552v864q1 114 -57.5 179t-162.5 65q-68 0 -118.5 -29.5t-77.5 -84t-28 -130.5zM732 1728l-300 448h472l192 -448h-364z" />
    <glyph glyph-name="uni01FA" unicode="&#x1fa;" horiz-adv-x="2240" 
d="M664 0h-600l676 2048h760l676 -2048h-600l-448 1484h-16zM552 808h1128v-416h-1128v416zM960 2864l200 316h424l-300 -316h-324zM1120 2174q-133 0 -226.5 86t-93.5 207q0 81 43 147.5t116 106t161 39.5q133 0 226.5 -86t93.5 -207q0 -81 -43 -147.5t-115.5 -106
t-161.5 -39.5zM1120 2353q52 1 90 34t38 80t-37.5 81t-90.5 33q-52 -1 -90 -34t-38 -80t37.5 -81t90.5 -33z" />
    <glyph glyph-name="uni01FB" unicode="&#x1fb;" horiz-adv-x="1664" 
d="M568 -24q-147 0 -259.5 48.5t-176.5 147.5t-64 252q0 126 43 215.5t120 146.5t179.5 87t221.5 39q129 10 207.5 24.5t113.5 41t35 70.5v4q0 60 -46 92t-118 32q-79 0 -128.5 -34.5t-59.5 -105.5h-508q10 140 89.5 258.5t232.5 190t382 71.5q165 0 296 -38.5t223 -107
t140.5 -160t48.5 -198.5v-1052h-516v216h-12q-46 -86 -111.5 -139t-149 -77t-183.5 -24zM748 324q63 0 118.5 26t90.5 75t35 119v128q-22 -9 -46.5 -17t-52 -15t-58 -13t-63.5 -11q-64 -10 -104.5 -32.5t-60 -55t-19.5 -72.5q0 -64 45 -98t115 -34zM688 2352l200 316h424
l-300 -316h-324zM848 1662q-133 0 -226.5 86t-93.5 207q0 81 43 147.5t116 106t161 39.5q133 0 226.5 -86t93.5 -207q0 -81 -43 -147.5t-115.5 -106t-161.5 -39.5zM848 1841q52 1 90 34t38 80t-37.5 81t-90.5 33q-52 -1 -90 -34t-38 -80t37.5 -81t90.5 -33z" />
    <glyph glyph-name="uni01FC" unicode="&#x1fc;" horiz-adv-x="2976" 
d="M64 0l800 2048h1968v-448h-920v-352h844v-448h-844v-352h916v-448h-1472v1484h-140l-540 -1484h-612zM556 392v416h1128v-416h-1128zM1676 2240l192 448h472l-300 -448h-364z" />
    <glyph glyph-name="uni01FD" unicode="&#x1fd;" horiz-adv-x="2552" 
d="M1760 -28q-187 0 -341.5 71.5t-226.5 224.5l-52 996q108 162 248 227t316 65q174 0 315 -54t241 -156.5t154 -248.5t54 -329v-128h-1320v304h812q-2 66 -34.5 116.5t-87 79t-122.5 28.5t-123.5 -28.5t-89 -79t-35.5 -116.5v-328q0 -74 31 -132t89 -91t140 -33
q57 0 104.5 16t81.5 46.5t50 73.5h504q-26 -160 -123 -277.5t-247.5 -182t-337.5 -64.5zM748 324q63 0 118.5 26t90.5 75t35 119v128q-22 -9 -46.5 -17t-52 -15t-58 -13t-63.5 -11q-64 -10 -104.5 -32.5t-60 -55t-19.5 -72.5q0 -64 45 -98t115 -34zM608 -24
q-167 0 -288.5 48.5t-186.5 148t-65 251.5q0 126 43 215t120.5 146t180 87.5t220.5 39.5q130 10 208 25t113 41t35 70v4q0 61 -45.5 92.5t-118.5 31.5q-78 0 -128.5 -34t-59.5 -106h-508q10 140 89 258.5t234 190t393 71.5q77 0 141.5 -14t117.5 -40t92.5 -64t64.5 -86
l-24 -1120h-32q-48 -86 -139.5 -143t-209.5 -85t-247 -28zM1056 1728l192 448h472l-300 -448h-364z" />
    <glyph glyph-name="uni01FE" unicode="&#x1fe;" horiz-adv-x="2240" 
d="M484 -108l-224 152l1496 2108l224 -152zM2116 1024q0 -342 -133 -576.5t-359 -355t-504 -120.5q-280 0 -505.5 121.5t-358 356t-132.5 574.5q0 342 132.5 576.5t358 355t505.5 120.5q278 0 504 -120.5t359 -355t133 -576.5zM1544 1024q0 184 -48.5 310.5t-143 192
t-232.5 65.5t-232.5 -65.5t-143 -192t-48.5 -310.5t48.5 -310.5t143 -192t232.5 -65.5t232.5 65.5t143 192t48.5 310.5zM936 2240l192 448h472l-300 -448h-364z" />
    <glyph glyph-name="uni01FF" unicode="&#x1ff;" horiz-adv-x="1760" 
d="M428 -108l-224 152l1124 1588l228 -152zM880 -32q-250 0 -428 99.5t-273 278t-95 414.5t95 414.5t273 278t428 99.5t428 -99.5t273 -278t95 -414.5t-95 -414.5t-273 -278t-428 -99.5zM884 376q70 0 121 47t79 134t28 207q0 121 -28 207.5t-79 133.5t-121 47
q-74 0 -127 -47t-81 -133.5t-28 -207.5q0 -120 28 -207t81 -134t127 -47zM696 1724l192 448h472l-300 -448h-364z" />
    <glyph glyph-name="uni0200" unicode="&#x200;" horiz-adv-x="2240" 
d="M664 0h-600l676 2048h760l676 -2048h-600l-448 1484h-16zM552 808h1128v-416h-1128v416zM686 2240l-300 448h472l192 -448h-364zM1228 2240l-194 448h446l102 -448h-354z" />
    <glyph glyph-name="uni0201" unicode="&#x201;" horiz-adv-x="1664" 
d="M568 -24q-147 0 -259.5 48.5t-176.5 147.5t-64 252q0 126 43 215.5t120 146.5t179.5 87t221.5 39q129 10 207.5 24.5t113.5 41t35 70.5v4q0 60 -46 92t-118 32q-79 0 -128.5 -34.5t-59.5 -105.5h-508q10 140 89.5 258.5t232.5 190t382 71.5q165 0 296 -38.5t223 -107
t140.5 -160t48.5 -198.5v-1052h-516v216h-12q-46 -86 -111.5 -139t-149 -77t-183.5 -24zM748 324q63 0 118.5 26t90.5 75t35 119v128q-22 -9 -46.5 -17t-52 -15t-58 -13t-63.5 -11q-64 -10 -104.5 -32.5t-60 -55t-19.5 -72.5q0 -64 45 -98t115 -34zM414 1728l-300 448h472
l192 -448h-364zM956 1728l-194 448h446l102 -448h-354z" />
    <glyph glyph-name="uni0202" unicode="&#x202;" horiz-adv-x="2240" 
d="M664 0h-600l676 2048h760l676 -2048h-600l-448 1484h-16zM552 808h1128v-416h-1128v416zM568 2288q-1 195 147 319.5t401 124.5q251 0 401 -124.5t151 -319.5h-348q-1 63 -47.5 113.5t-156.5 50.5q-109 0 -155 -50.5t-45 -113.5h-348z" />
    <glyph glyph-name="uni0203" unicode="&#x203;" horiz-adv-x="1664" 
d="M568 -24q-147 0 -259.5 48.5t-176.5 147.5t-64 252q0 126 43 215.5t120 146.5t179.5 87t221.5 39q129 10 207.5 24.5t113.5 41t35 70.5v4q0 60 -46 92t-118 32q-79 0 -128.5 -34.5t-59.5 -105.5h-508q10 140 89.5 258.5t232.5 190t382 71.5q165 0 296 -38.5t223 -107
t140.5 -160t48.5 -198.5v-1052h-516v216h-12q-46 -86 -111.5 -139t-149 -77t-183.5 -24zM748 324q63 0 118.5 26t90.5 75t35 119v128q-22 -9 -46.5 -17t-52 -15t-58 -13t-63.5 -11q-64 -10 -104.5 -32.5t-60 -55t-19.5 -72.5q0 -64 45 -98t115 -34zM296 1776
q-1 195 147 319.5t401 124.5q251 0 401 -124.5t151 -319.5h-348q-1 63 -47.5 113.5t-156.5 50.5q-109 0 -155 -50.5t-45 -113.5h-348z" />
    <glyph glyph-name="uni0204" unicode="&#x204;" horiz-adv-x="1752" 
d="M132 0v2048h1476v-448h-920v-352h844v-448h-844v-352h916v-448h-1472zM442 2240l-300 448h472l192 -448h-364zM984 2240l-194 448h446l102 -448h-354z" />
    <glyph glyph-name="uni0205" unicode="&#x205;" horiz-adv-x="1712" 
d="M876 -28q-246 0 -423.5 94.5t-273 272t-95.5 425.5q0 238 96 416t271 277t413 99q174 0 315 -54t241 -156.5t154 -248.5t54 -329v-128h-1372v304h864q-1 66 -33.5 116.5t-87 79t-123.5 28.5q-67 0 -123 -28.5t-89.5 -78.5t-35.5 -117v-328q0 -74 31 -132t89 -91t140 -33
q57 0 104.5 16t81.5 46.5t50 73.5h504q-26 -160 -123 -277.5t-256.5 -182t-372.5 -64.5zM422 1728l-300 448h472l192 -448h-364zM964 1728l-194 448h446l102 -448h-354z" />
    <glyph glyph-name="uni0206" unicode="&#x206;" horiz-adv-x="1752" 
d="M132 0v2048h1476v-448h-920v-352h844v-448h-844v-352h916v-448h-1472zM324 2288q-1 195 147 319.5t401 124.5q251 0 401 -124.5t151 -319.5h-348q-1 63 -47.5 113.5t-156.5 50.5q-109 0 -155 -50.5t-45 -113.5h-348z" />
    <glyph glyph-name="uni0207" unicode="&#x207;" horiz-adv-x="1712" 
d="M876 -28q-246 0 -423.5 94.5t-273 272t-95.5 425.5q0 238 96 416t271 277t413 99q174 0 315 -54t241 -156.5t154 -248.5t54 -329v-128h-1372v304h864q-1 66 -33.5 116.5t-87 79t-123.5 28.5q-67 0 -123 -28.5t-89.5 -78.5t-35.5 -117v-328q0 -74 31 -132t89 -91t140 -33
q57 0 104.5 16t81.5 46.5t50 73.5h504q-26 -160 -123 -277.5t-256.5 -182t-372.5 -64.5zM304 1776q-1 195 147 319.5t401 124.5q251 0 401 -124.5t151 -319.5h-348q-1 63 -47.5 113.5t-156.5 50.5q-109 0 -155 -50.5t-45 -113.5h-348z" />
    <glyph glyph-name="uni0208" unicode="&#x208;" horiz-adv-x="820" 
d="M688 2048v-2048h-556v2048h556zM-22 2240l-300 448h472l192 -448h-364zM520 2240l-194 448h446l102 -448h-354z" />
    <glyph glyph-name="uni0209" unicode="&#x209;" horiz-adv-x="832" 
d="M140 0v1536h552v-1536h-552zM-18 1728l-300 448h472l192 -448h-364zM524 1728l-194 448h446l102 -448h-354z" />
    <glyph glyph-name="uni020A" unicode="&#x20a;" horiz-adv-x="820" 
d="M688 2048v-2048h-556v2048h556zM-140 2288q-1 195 147 319.5t401 124.5q251 0 401 -124.5t151 -319.5h-348q-1 63 -47.5 113.5t-156.5 50.5q-109 0 -155 -50.5t-45 -113.5h-348z" />
    <glyph glyph-name="uni020B" unicode="&#x20b;" horiz-adv-x="832" 
d="M140 0v1536h552v-1536h-552zM-136 1776q-1 195 147 319.5t401 124.5q251 0 401 -124.5t151 -319.5h-348q-1 63 -47.5 113.5t-156.5 50.5q-109 0 -155 -50.5t-45 -113.5h-348z" />
    <glyph glyph-name="uni020C" unicode="&#x20c;" horiz-adv-x="2240" 
d="M2116 1024q0 -342 -133 -576.5t-359 -355t-504 -120.5q-280 0 -505.5 121.5t-358 356t-132.5 574.5q0 342 132.5 576.5t358 355t505.5 120.5q278 0 504 -120.5t359 -355t133 -576.5zM1544 1024q0 184 -48.5 310.5t-143 192t-232.5 65.5t-232.5 -65.5t-143 -192
t-48.5 -310.5t48.5 -310.5t143 -192t232.5 -65.5t232.5 65.5t143 192t48.5 310.5zM686 2240l-300 448h472l192 -448h-364zM1228 2240l-194 448h446l102 -448h-354z" />
    <glyph glyph-name="uni020D" unicode="&#x20d;" horiz-adv-x="1760" 
d="M880 -28q-250 0 -428 99.5t-273 278t-95 414.5t95 414.5t273 278t428 99.5t428 -99.5t273 -278t95 -414.5t-95 -414.5t-273 -278t-428 -99.5zM884 380q70 0 121 47t79 134t28 207q0 121 -28 207.5t-79 133.5t-121 47q-74 0 -127 -47t-81 -133.5t-28 -207.5
q0 -120 28 -207t81 -134t127 -47zM446 1728l-300 448h472l192 -448h-364zM988 1728l-194 448h446l102 -448h-354z" />
    <glyph glyph-name="uni020E" unicode="&#x20e;" horiz-adv-x="2240" 
d="M2116 1024q0 -342 -133 -576.5t-359 -355t-504 -120.5q-280 0 -505.5 121.5t-358 356t-132.5 574.5q0 342 132.5 576.5t358 355t505.5 120.5q278 0 504 -120.5t359 -355t133 -576.5zM1544 1024q0 184 -48.5 310.5t-143 192t-232.5 65.5t-232.5 -65.5t-143 -192
t-48.5 -310.5t48.5 -310.5t143 -192t232.5 -65.5t232.5 65.5t143 192t48.5 310.5zM568 2288q-1 195 147 319.5t401 124.5q251 0 401 -124.5t151 -319.5h-348q-1 63 -47.5 113.5t-156.5 50.5q-109 0 -155 -50.5t-45 -113.5h-348z" />
    <glyph glyph-name="uni020F" unicode="&#x20f;" horiz-adv-x="1760" 
d="M880 -28q-250 0 -428 99.5t-273 278t-95 414.5t95 414.5t273 278t428 99.5t428 -99.5t273 -278t95 -414.5t-95 -414.5t-273 -278t-428 -99.5zM884 380q70 0 121 47t79 134t28 207q0 121 -28 207.5t-79 133.5t-121 47q-74 0 -127 -47t-81 -133.5t-28 -207.5
q0 -120 28 -207t81 -134t127 -47zM328 1776q-1 195 147 319.5t401 124.5q251 0 401 -124.5t151 -319.5h-348q-1 63 -47.5 113.5t-156.5 50.5q-109 0 -155 -50.5t-45 -113.5h-348z" />
    <glyph glyph-name="uni0210" unicode="&#x210;" horiz-adv-x="1880" 
d="M132 0v2048h884q228 0 399 -83t266 -239t95 -374q0 -220 -97.5 -371t-273 -228t-409.5 -77h-528v432h416q98 0 167.5 24.5t107 78.5t37.5 141q0 88 -37.5 143.5t-107 82t-167.5 26.5h-196v-1604h-556zM1332 940l512 -940h-604l-500 940h592zM494 2240l-300 448h472
l192 -448h-364zM1036 2240l-194 448h446l102 -448h-354z" />
    <glyph glyph-name="uni0211" unicode="&#x211;" horiz-adv-x="1220" 
d="M140 0v1536h536v-292h16q42 162 133.5 237t214.5 75q36 0 71.5 -5.5t68.5 -15.5v-471q-41 14 -101 21t-103 7q-81 0 -145.5 -36.5t-101.5 -102t-37 -153.5v-800h-552zM230 1728l-300 448h472l192 -448h-364zM772 1728l-194 448h446l102 -448h-354z" />
    <glyph glyph-name="uni0212" unicode="&#x212;" horiz-adv-x="1880" 
d="M132 0v2048h884q228 0 399 -83t266 -239t95 -374q0 -220 -97.5 -371t-273 -228t-409.5 -77h-528v432h416q98 0 167.5 24.5t107 78.5t37.5 141q0 88 -37.5 143.5t-107 82t-167.5 26.5h-196v-1604h-556zM1332 940l512 -940h-604l-500 940h592zM376 2288q-1 195 147 319.5
t401 124.5q251 0 401 -124.5t151 -319.5h-348q-1 63 -47.5 113.5t-156.5 50.5q-109 0 -155 -50.5t-45 -113.5h-348z" />
    <glyph glyph-name="uni0213" unicode="&#x213;" horiz-adv-x="1220" 
d="M140 0v1536h536v-292h16q42 162 133.5 237t214.5 75q36 0 71.5 -5.5t68.5 -15.5v-471q-41 14 -101 21t-103 7q-81 0 -145.5 -36.5t-101.5 -102t-37 -153.5v-800h-552zM112 1776q-1 195 147 319.5t401 124.5q251 0 401 -124.5t151 -319.5h-348q-1 63 -47.5 113.5
t-156.5 50.5q-109 0 -155 -50.5t-45 -113.5h-348z" />
    <glyph glyph-name="uni0214" unicode="&#x214;" horiz-adv-x="2032" 
d="M1344 2048h556v-1312q0 -234 -111.5 -404.5t-310.5 -263t-462 -92.5q-265 0 -464 92.5t-309.5 263t-110.5 404.5v1312h556v-1264q0 -95 42 -169.5t116.5 -116.5t169.5 -42q96 0 170 42t116 116.5t42 169.5v1264zM582 2240l-300 448h472l192 -448h-364zM1124 2240
l-194 448h446l102 -448h-354z" />
    <glyph glyph-name="uni0215" unicode="&#x215;" horiz-adv-x="1828" 
d="M1136 672v864h552v-1536h-524v292h-16q-50 -147 -175 -229.5t-297 -82.5q-161 0 -281.5 74t-187 204t-67.5 298v980h552v-864q1 -114 58.5 -179t161.5 -65q69 0 119.5 29.5t78 84t26.5 130.5zM482 1728l-300 448h472l192 -448h-364zM1024 1728l-194 448h446l102 -448
h-354z" />
    <glyph glyph-name="uni0216" unicode="&#x216;" horiz-adv-x="2032" 
d="M1344 2048h556v-1312q0 -234 -111.5 -404.5t-310.5 -263t-462 -92.5q-265 0 -464 92.5t-309.5 263t-110.5 404.5v1312h556v-1264q0 -95 42 -169.5t116.5 -116.5t169.5 -42q96 0 170 42t116 116.5t42 169.5v1264zM464 2288q-1 195 147 319.5t401 124.5q251 0 401 -124.5
t151 -319.5h-348q-1 63 -47.5 113.5t-156.5 50.5q-109 0 -155 -50.5t-45 -113.5h-348z" />
    <glyph glyph-name="uni0217" unicode="&#x217;" horiz-adv-x="1828" 
d="M1136 672v864h552v-1536h-524v292h-16q-50 -147 -175 -229.5t-297 -82.5q-161 0 -281.5 74t-187 204t-67.5 298v980h552v-864q1 -114 58.5 -179t161.5 -65q69 0 119.5 29.5t78 84t26.5 130.5zM364 1776q-1 195 147 319.5t401 124.5q251 0 401 -124.5t151 -319.5h-348
q-1 63 -47.5 113.5t-156.5 50.5q-109 0 -155 -50.5t-45 -113.5h-348z" />
    <glyph glyph-name="uni0218" unicode="&#x218;" horiz-adv-x="1876" 
d="M1236 1408q-8 100 -74.5 156t-201.5 56q-86 0 -140.5 -20.5t-80.5 -55.5t-27 -80q-2 -37 13.5 -66.5t49.5 -53t87 -42.5t126 -34l168 -36q170 -36 291 -95t198 -138.5t113.5 -178.5t37.5 -216q-1 -202 -101 -342t-285.5 -213t-445.5 -73q-267 0 -465.5 79t-308 243.5
t-110.5 421.5h528q5 -94 47 -158t118.5 -97t182.5 -33q89 0 149 22t91 61t32 89q-1 47 -30.5 82.5t-96.5 64t-181 53.5l-204 44q-272 59 -428.5 197.5t-155.5 378.5q-1 195 104.5 341.5t293 228.5t430.5 82q248 0 429 -83t279.5 -233.5t99.5 -351.5h-532zM574 -640l132 478
h496l-252 -478h-376z" />
    <glyph glyph-name="uni0219" unicode="&#x219;" horiz-adv-x="1656" 
d="M1544 1036h-508q-4 47 -33 81t-74.5 52.5t-100.5 18.5q-71 0 -122 -26t-50 -74q-1 -34 29.5 -63t118.5 -45l312 -56q236 -43 351.5 -144.5t116.5 -271.5q-1 -164 -97.5 -284.5t-263 -186t-379.5 -65.5q-352 0 -550.5 144t-221.5 380h548q11 -73 72.5 -112.5t155.5 -39.5
q76 0 125.5 26t50.5 74q-1 44 -43.5 70t-132.5 42l-272 48q-235 41 -352 156t-116 296q-1 160 84.5 271.5t245 170t378.5 58.5q333 0 525.5 -138t202.5 -382zM458 -640l132 478h496l-252 -478h-376z" />
    <glyph glyph-name="uni021A" unicode="&#x21a;" horiz-adv-x="1932" 
d="M76 1600v448h1780v-448h-616v-1600h-548v1600h-616zM590 -640l132 478h496l-252 -478h-376z" />
    <glyph glyph-name="uni021B" unicode="&#x21b;" horiz-adv-x="1140" 
d="M1056 1536v-400h-1012v400h1012zM240 1904h552v-1410q0 -32 11 -53.5t34 -32t59 -10.5q25 0 58.5 6t49.5 10l80 -388q-37 -11 -105.5 -27t-162.5 -21q-190 -10 -319 39.5t-194 156.5t-63 268v1462zM264 -640l132 478h496l-252 -478h-376z" />
    <glyph glyph-name="uni021C" unicode="&#x21c;" horiz-adv-x="1960" 
d="M340 420v404q274 80 448 143.5t270 124t133 130t37 162.5q0 143 -65.5 203.5t-206.5 60.5q-77 0 -133 -18t-85.5 -52t-29.5 -82h-536q0 170 100.5 300.5t277.5 205t406 74.5q252 0 432 -65.5t276 -202t96 -348.5q0 -183 -74 -332.5t-239.5 -273t-437.5 -230t-669 -204.5z
M992 692l52 316q221 18 388.5 -39.5t261.5 -179.5t94 -297q0 -213 -103 -397.5t-294.5 -329t-457.5 -238.5t-593 -127v424q214 39 383 105t287 154t180 194.5t62 226.5q0 133 -55.5 171.5t-204.5 16.5z" />
    <glyph glyph-name="uni021D" unicode="&#x21d;" horiz-adv-x="1692" 
d="M364 164v368q236 84 372 156t193 149.5t57 176.5q0 86 -36.5 126t-115.5 40q-50 0 -84.5 -15.5t-52.5 -45t-17 -71.5h-520q-1 160 80 273.5t234 174t368 60.5q329 0 494.5 -123.5t165.5 -368.5q0 -196 -119 -356t-370 -293t-649 -251zM808 496l44 196q327 26 502.5 -83.5
t175.5 -338.5q0 -293 -294 -512.5t-872 -357.5v372q248 103 388.5 186.5t199 164.5t58.5 175q0 110 -58.5 163.5t-143.5 34.5z" />
    <glyph glyph-name="uni021E" unicode="&#x21e;" horiz-adv-x="2112" 
d="M132 0v2048h556v-800h736v800h556v-2048h-556v800h-736v-800h-556zM860 2700l196 -220l196 220h456v-12l-460 -456h-384l-460 456v12h456z" />
    <glyph glyph-name="uni021F" unicode="&#x21f;" horiz-adv-x="1820" 
d="M692 864v-864h-552v2048h532v-804h16q52 147 173 229.5t291 82.5q163 0 283.5 -74t187 -204t65.5 -298v-980h-552v864q1 114 -56.5 179t-163.5 65q-67 0 -117.5 -29.5t-78 -84t-28.5 -130.5zM212 2700l196 -220l196 220h456v-12l-460 -456h-384l-460 456v12h456z" />
    <glyph glyph-name="uni0220" unicode="&#x220;" horiz-adv-x="1968" 
d="M1764 -572h-524v2068q0 59 -26 97t-75 56.5t-119 18.5q-184 0 -357.5 -123.5t-334.5 -360.5v492q102 128 224 217.5t260 136t288 46.5q192 0 342 -73t236 -203.5t86 -303.5v-2068zM728 2048v-2048h-520v2048h520z" />
    <glyph glyph-name="uni0221" unicode="&#x221;" horiz-adv-x="2020" 
d="M1128 348h556v-516q1 -66 35 -93t81 -27q46 0 77.5 22t30.5 58q1 42 -35 73.5t-121 26.5q-56 -3 -148 -51t-216 -133l-436 -300l-208 320l440 312q130 66 262 103t302 37q301 0 455 -113.5t153 -290.5q1 -110 -61 -189t-189 -121t-322 -42q-247 0 -390.5 70t-204 196
t-61.5 294v364zM704 -20q-164 0 -301.5 86t-220 261t-82.5 441q0 278 86.5 452t224 255t289.5 81q114 0 200 -39.5t144 -105t88 -143.5h8v780h552v-2048h-548v252h-12q-32 -78 -91.5 -139.5t-144 -97t-192.5 -35.5zM908 404q76 0 130.5 44.5t84 126t29.5 193.5
q0 114 -29.5 195.5t-84 125t-130.5 43.5t-129.5 -43.5t-82 -125t-28.5 -195.5t28.5 -195.5t82 -125t129.5 -43.5z" />
    <glyph glyph-name="uni0222" unicode="&#x222;" horiz-adv-x="1964" 
d="M972 1312h28q252 0 429.5 -76t272 -220t94.5 -348q0 -211 -98.5 -367.5t-277 -242.5t-420.5 -86h-28q-244 0 -425 85.5t-280 241.5t-99 365q0 206 94.5 350.5t274.5 221t435 76.5zM1000 940h-28q-118 0 -187.5 -75t-68.5 -201q-1 -122 69.5 -197t186.5 -75h28
q115 0 181 73.5t67 202.5q-1 126 -67.5 199t-180.5 73zM968 1372h28q91 0 148.5 13.5t85 48t26.5 98.5q-1 56 -24.5 87t-79.5 41v416q207 5 352.5 -60.5t222.5 -189t77 -294.5q1 -174 -94.5 -291.5t-276 -177t-437.5 -59.5h-28q-193 0 -341.5 33t-250.5 99t-155 165t-53 231
q0 173 75 296t220 187.5t353 60.5v-416q-57 -10 -79 -40t-21 -88q1 -66 26 -100.5t80.5 -47t145.5 -12.5z" />
    <glyph glyph-name="uni0223" unicode="&#x223;" horiz-adv-x="1960" 
d="M968 1276h28q228 0 405 -62.5t278 -200t101 -361.5q0 -218 -100 -370t-277 -231t-407 -79h-28q-232 0 -409.5 79t-278 231t-100.5 370q0 224 100.5 361.5t278 200t409.5 62.5zM996 916h-28q-132 0 -200 -76.5t-68 -187.5t68 -187.5t200 -76.5h28q138 0 201 76.5t63 187.5
t-63 187.5t-201 76.5zM992 1328q100 0 160.5 25.5t88 77t27.5 129.5q0 84 -39 127.5t-81 52.5v400q190 2 332 -59.5t221 -188t79 -320.5q0 -220 -99.5 -351.5t-277 -190t-411.5 -58.5h-24q-232 0 -409.5 58.5t-278 190t-100.5 351.5q0 190 78 317t220 190t334 61v-400
q-42 -9 -77 -52.5t-35 -127.5q0 -80 26 -131.5t85 -76t157 -24.5h24z" />
    <glyph glyph-name="uni0224" unicode="&#x224;" horiz-adv-x="1956" 
d="M144 1600v448h1672v-308l-984 -1292h356q326 0 496 -160t168 -448v-224h-444v124q1 70 -14.5 129t-63 95t-142.5 36h-1048v308l984 1292h-980z" />
    <glyph glyph-name="uni0225" unicode="&#x225;" horiz-adv-x="1652" 
d="M1124 -408v120q0 62 -15 129t-61 113t-140 46h-752v284l648 836h-604v416h1280v-288l-648 -832h76q321 0 492.5 -159t171.5 -453v-212h-448z" />
    <glyph glyph-name="uni0226" unicode="&#x226;" horiz-adv-x="2240" 
d="M664 0h-600l676 2048h760l676 -2048h-600l-448 1484h-16zM552 808h1128v-416h-1128v416zM1121 2208q-113 0 -193 74t-80 178t80 178t192 74q113 0 192.5 -74t79.5 -178t-79.5 -178t-191.5 -74z" />
    <glyph glyph-name="uni0227" unicode="&#x227;" horiz-adv-x="1664" 
d="M568 -24q-147 0 -259.5 48.5t-176.5 147.5t-64 252q0 126 43 215.5t120 146.5t179.5 87t221.5 39q129 10 207.5 24.5t113.5 41t35 70.5v4q0 60 -46 92t-118 32q-79 0 -128.5 -34.5t-59.5 -105.5h-508q10 140 89.5 258.5t232.5 190t382 71.5q165 0 296 -38.5t223 -107
t140.5 -160t48.5 -198.5v-1052h-516v216h-12q-46 -86 -111.5 -139t-149 -77t-183.5 -24zM748 324q63 0 118.5 26t90.5 75t35 119v128q-22 -9 -46.5 -17t-52 -15t-58 -13t-63.5 -11q-64 -10 -104.5 -32.5t-60 -55t-19.5 -72.5q0 -64 45 -98t115 -34zM849 1696q-113 0 -193 74
t-80 178t80 178t192 74q113 0 192.5 -74t79.5 -178t-79.5 -178t-191.5 -74z" />
    <glyph glyph-name="uni0228" unicode="&#x228;" horiz-adv-x="1752" 
d="M132 0v2048h1476v-448h-920v-352h844v-448h-844v-352h916v-448h-1472zM784 8h196l-16 -92q119 -18 185 -84t67 -164q2 -162 -158.5 -255t-441.5 -93v212q148 0 226 31.5t82 92.5q4 56 -43.5 92.5t-144.5 51.5z" />
    <glyph glyph-name="uni0229" unicode="&#x229;" horiz-adv-x="1712" 
d="M876 -28q-246 0 -423.5 94.5t-273 272t-95.5 425.5q0 238 96 416t271 277t413 99q174 0 315 -54t241 -156.5t154 -248.5t54 -329v-128h-1372v304h864q-1 66 -33.5 116.5t-87 79t-123.5 28.5q-67 0 -123 -28.5t-89.5 -78.5t-35.5 -117v-328q0 -74 31 -132t89 -91t140 -33
q57 0 104.5 16t81.5 46.5t50 73.5h504q-26 -160 -123 -277.5t-256.5 -182t-372.5 -64.5zM768 8h196l-16 -92q119 -18 185 -84t67 -164q2 -162 -158.5 -255t-441.5 -93v212q148 0 226 31.5t82 92.5q4 56 -43.5 92.5t-144.5 51.5z" />
    <glyph glyph-name="uni022A" unicode="&#x22a;" horiz-adv-x="2240" 
d="M2116 1024q0 -342 -133 -576.5t-359 -355t-504 -120.5q-280 0 -505.5 121.5t-358 356t-132.5 574.5q0 342 132.5 576.5t358 355t505.5 120.5q278 0 504 -120.5t359 -355t133 -576.5zM1544 1024q0 184 -48.5 310.5t-143 192t-232.5 65.5t-232.5 -65.5t-143 -192
t-48.5 -310.5t48.5 -310.5t143 -192t232.5 -65.5t232.5 65.5t143 192t48.5 310.5zM804 2228q-102 0 -173 68t-71 164t71 164t173 68q99 0 169.5 -68t70.5 -164t-70.5 -164t-169.5 -68zM1440 2228q-102 0 -173 68t-71 164t71 164t173 68q99 0 169.5 -68t70.5 -164t-70.5 -164
t-169.5 -68zM1620 3072v-252h-1000v252h1000z" />
    <glyph glyph-name="uni022B" unicode="&#x22b;" horiz-adv-x="1760" 
d="M880 -28q-250 0 -428 99.5t-273 278t-95 414.5t95 414.5t273 278t428 99.5t428 -99.5t273 -278t95 -414.5t-95 -414.5t-273 -278t-428 -99.5zM884 380q70 0 121 47t79 134t28 207q0 121 -28 207.5t-79 133.5t-121 47q-74 0 -127 -47t-81 -133.5t-28 -207.5
q0 -120 28 -207t81 -134t127 -47zM564 1716q-102 0 -173 68t-71 164t71 164t173 68q99 0 169.5 -68t70.5 -164t-70.5 -164t-169.5 -68zM1200 1716q-102 0 -173 68t-71 164t71 164t173 68q99 0 169.5 -68t70.5 -164t-70.5 -164t-169.5 -68zM1380 2560v-252h-1000v252h1000z
" />
    <glyph glyph-name="uni022C" unicode="&#x22c;" horiz-adv-x="2240" 
d="M2116 1024q0 -342 -133 -576.5t-359 -355t-504 -120.5q-280 0 -505.5 121.5t-358 356t-132.5 574.5q0 342 132.5 576.5t358 355t505.5 120.5q278 0 504 -120.5t359 -355t133 -576.5zM1544 1024q0 184 -48.5 310.5t-143 192t-232.5 65.5t-232.5 -65.5t-143 -192
t-48.5 -310.5t48.5 -310.5t143 -192t232.5 -65.5t232.5 65.5t143 192t48.5 310.5zM1348 2592l212 -60q-1 -96 -68 -172t-168 -76q-76 0 -132 21t-107 42t-113 21q-34 0 -57.5 -34t-22.5 -82l-208 60q-1 96 62 172t166 76q62 0 120.5 -21t116 -42t115.5 -21q32 0 57.5 34
t26.5 82zM1620 2972v-252h-1004v252h1004z" />
    <glyph glyph-name="uni022D" unicode="&#x22d;" horiz-adv-x="1760" 
d="M880 -28q-250 0 -428 99.5t-273 278t-95 414.5t95 414.5t273 278t428 99.5t428 -99.5t273 -278t95 -414.5t-95 -414.5t-273 -278t-428 -99.5zM884 380q70 0 121 47t79 134t28 207q0 121 -28 207.5t-79 133.5t-121 47q-74 0 -127 -47t-81 -133.5t-28 -207.5
q0 -120 28 -207t81 -134t127 -47zM1160 2144l284 -12q1 -100 -42.5 -189.5t-120 -146t-177.5 -56.5q-66 0 -116.5 17t-95 39t-90.5 39t-102 17q-41 0 -72 -24.5t-32 -87.5l-284 16q1 92 43.5 180.5t118 146t174.5 57.5q56 0 106.5 -16.5t99 -37.5t97.5 -37.5t101 -16.5
q43 0 76 24.5t32 87.5zM1380 2572v-252h-1004v252h1004z" />
    <glyph glyph-name="uni022E" unicode="&#x22e;" horiz-adv-x="2240" 
d="M2116 1024q0 -342 -133 -576.5t-359 -355t-504 -120.5q-280 0 -505.5 121.5t-358 356t-132.5 574.5q0 342 132.5 576.5t358 355t505.5 120.5q278 0 504 -120.5t359 -355t133 -576.5zM1544 1024q0 184 -48.5 310.5t-143 192t-232.5 65.5t-232.5 -65.5t-143 -192
t-48.5 -310.5t48.5 -310.5t143 -192t232.5 -65.5t232.5 65.5t143 192t48.5 310.5zM1121 2208q-113 0 -193 74t-80 178t80 178t192 74q113 0 192.5 -74t79.5 -178t-79.5 -178t-191.5 -74z" />
    <glyph glyph-name="uni022F" unicode="&#x22f;" horiz-adv-x="1760" 
d="M880 -28q-250 0 -428 99.5t-273 278t-95 414.5t95 414.5t273 278t428 99.5t428 -99.5t273 -278t95 -414.5t-95 -414.5t-273 -278t-428 -99.5zM884 380q70 0 121 47t79 134t28 207q0 121 -28 207.5t-79 133.5t-121 47q-74 0 -127 -47t-81 -133.5t-28 -207.5
q0 -120 28 -207t81 -134t127 -47zM881 1696q-113 0 -193 74t-80 178t80 178t192 74q113 0 192.5 -74t79.5 -178t-79.5 -178t-191.5 -74z" />
    <glyph glyph-name="uni0230" unicode="&#x230;" horiz-adv-x="2240" 
d="M2116 1024q0 -342 -133 -576.5t-359 -355t-504 -120.5q-280 0 -505.5 121.5t-358 356t-132.5 574.5q0 342 132.5 576.5t358 355t505.5 120.5q278 0 504 -120.5t359 -355t133 -576.5zM1544 1024q0 184 -48.5 310.5t-143 192t-232.5 65.5t-232.5 -65.5t-143 -192
t-48.5 -310.5t48.5 -310.5t143 -192t232.5 -65.5t232.5 65.5t143 192t48.5 310.5zM1121 2227q-101 0 -172.5 68.5t-71.5 163.5q0 97 71.5 164.5t172.5 67.5t172.5 -67.5t71.5 -164.5q0 -95 -71.5 -163.5t-172.5 -68.5zM1620 3072v-252h-1000v252h1000z" />
    <glyph glyph-name="uni0231" unicode="&#x231;" horiz-adv-x="1760" 
d="M880 -28q-250 0 -428 99.5t-273 278t-95 414.5t95 414.5t273 278t428 99.5t428 -99.5t273 -278t95 -414.5t-95 -414.5t-273 -278t-428 -99.5zM884 380q70 0 121 47t79 134t28 207q0 121 -28 207.5t-79 133.5t-121 47q-74 0 -127 -47t-81 -133.5t-28 -207.5
q0 -120 28 -207t81 -134t127 -47zM1380 2548v-252h-1000v252h1000zM881 1703q-101 0 -172.5 68.5t-71.5 163.5q0 97 71.5 164.5t172.5 67.5t172.5 -67.5t71.5 -164.5q0 -95 -71.5 -163.5t-172.5 -68.5z" />
    <glyph glyph-name="uni0232" unicode="&#x232;" horiz-adv-x="2152" 
d="M48 2048h620l400 -832h16l400 832h620l-752 -1404v-644h-552v644zM1576 2560v-252h-1000v252h1000z" />
    <glyph glyph-name="uni0233" unicode="&#x233;" horiz-adv-x="1704" 
d="M476 -576q-95 0 -181 14.5t-151 39.5l120 392q68 -24 124.5 -31t97 8t58.5 57l12 28l-540 1604h576l248 -1064h16l252 1064h580l-560 -1664q-42 -127 -121.5 -228.5t-208.5 -160.5t-322 -59zM1348 2048v-252h-1000v252h1000z" />
    <glyph glyph-name="uni0234" unicode="&#x234;" horiz-adv-x="1336" 
d="M100 424h552v-500q-1 -72 20 -112t88 -40q26 0 46.5 27t21.5 57q-1 12 -21.5 42t-58.5 30q-127 0 -249 -58.5t-295 -181.5l-280 -200l-248 296l164 100q107 66 230 135t251 127t249.5 94t225.5 36q133 0 231.5 -58.5t153 -151t55.5 -194.5q-1 -104 -60 -207.5t-167 -172
t-257 -68.5q-92 0 -204.5 33t-214.5 107t-168 197t-65 303v360zM652 2048v-2048h-552v2048h552z" />
    <glyph glyph-name="uni0235" unicode="&#x235;" horiz-adv-x="2328" 
d="M1136 128h552v-128q0 -49 24.5 -76.5t67.5 -27.5q39 0 61.5 27.5t22.5 76.5t-31.5 76t-72.5 28q-27 1 -90 -6.5t-142 -31t-158.5 -68t-141.5 -118.5l-204 -244l-252 212l164 196q119 143 225.5 218t208 104.5t204 33.5t214.5 4q136 0 245.5 -57t174 -156t64.5 -227
q1 -130 -68.5 -231t-197.5 -158.5t-306 -58.5q-102 0 -202 23t-182 77.5t-131 148.5t-49 235v128zM692 864v-864h-552v1536h524v-292h16q50 146 176.5 229t295.5 83q163 0 283.5 -74.5t187 -204.5t65.5 -297v-980h-552v864q1 114 -57.5 179t-162.5 65q-68 0 -118.5 -29.5
t-77.5 -84t-28 -130.5z" />
    <glyph glyph-name="uni0236" unicode="&#x236;" horiz-adv-x="1576" 
d="M384 1904h552v-1484q0 -46 28 -75t72 -29q34 0 55 23.5t21 60.5q0 32 -22.5 52t-57.5 20q-55 0 -140.5 -28t-190 -86t-218.5 -146t-227 -208l-212 288q174 180 365 297t366.5 174t304.5 57q196 0 318 -115t122 -289q0 -67 -23.5 -145t-82 -146.5t-162.5 -112.5t-264 -44
q-93 0 -197.5 21t-197 79t-151 169t-58.5 291v1376zM1200 1536v-400h-1012v400h1012z" />
    <glyph glyph-name="uni0237" unicode="&#x237;" horiz-adv-x="832" 
d="M140 1536h552v-1588q0 -202 -84.5 -316t-236.5 -161t-355 -47q-30 0 -55.5 1t-56.5 3v408q20 -2 34.5 -3t29.5 -1q99 0 135.5 30.5t36.5 97.5v1576z" />
    <glyph glyph-name="uni0238" unicode="&#x238;" horiz-adv-x="2776" 
d="M2596 776v-28q0 -228 -71 -403t-201 -274t-308 -99q-148 0 -253 63t-175.5 171.5t-113 247.5t-66.5 290v8q32 222 98.5 404.5t188 291t317.5 108.5q180 0 311 -97.5t202 -273t71 -409.5zM2076 748v28q0 116 -20 199.5t-68 128t-132 44.5q-123 0 -187.5 -97t-64.5 -287
v-28q0 -114 29 -192.5t85 -119t138 -40.5q96 0 143 49.5t62 132t15 182.5zM1128 360v1688h520v-2048h-468zM180 748v28q0 234 71 409.5t202 273t311 97.5q196 0 317.5 -108.5t188 -291t98.5 -404.5v-8q-24 -151 -66.5 -290t-113 -247.5t-175 -171.5t-253.5 -63
q-178 0 -308 99t-201 274t-71 403zM700 776v-28q0 -100 15 -182.5t62 -132t143 -49.5q82 0 138 40.5t85 119t29 192.5v28q0 127 -29 212t-85 128.5t-138 43.5q-84 0 -132 -44.5t-68 -128t-20 -199.5z" />
    <glyph glyph-name="uni0239" unicode="&#x239;" horiz-adv-x="2776" 
d="M1128 -572v1784l68 324h416l36 -284v-1824h-520zM180 748v28q0 234 71 409.5t202 273t311 97.5q196 0 317.5 -108.5t188 -291t98.5 -404.5v-8q-24 -151 -66.5 -290t-113 -247.5t-175 -171.5t-253.5 -63q-178 0 -308 99t-201 274t-71 403zM700 776v-28q0 -100 15 -182.5
t62 -132t143 -49.5q82 0 138 40.5t85 119t29 192.5v28q0 127 -29 212t-85 128.5t-138 43.5q-84 0 -132 -44.5t-68 -128t-20 -199.5zM2596 776v-28q0 -228 -71 -403t-201 -274t-308 -99q-148 0 -253 63t-175.5 171.5t-113 247.5t-66.5 290v8q32 222 98.5 404.5t188 291
t317.5 108.5q180 0 311 -97.5t202 -273t71 -409.5zM2076 748v28q0 116 -20 199.5t-68 128t-132 44.5q-123 0 -187.5 -97t-64.5 -287v-28q0 -114 29 -192.5t85 -119t138 -40.5q96 0 143 49.5t62 132t15 182.5z" />
    <glyph glyph-name="uni023A" unicode="&#x23a;" horiz-adv-x="2240" 
d="M1816 2308l-776 -2568h-284l776 2568h284zM664 0h-600l676 2048h760l676 -2048h-600l-448 1484h-16zM552 808h1128v-416h-1128v416z" />
    <glyph glyph-name="uni023B" unicode="&#x23b;" horiz-adv-x="2164" 
d="M556 -260l776 2568h284l-776 -2568h-284zM2044 1280h-564q-6 70 -31.5 127t-70 98.5t-107.5 64t-143 22.5q-140 0 -236.5 -68t-146 -195t-49.5 -305q0 -188 50.5 -314.5t146.5 -190t231 -63.5q77 0 138 19.5t106 56.5t73.5 89.5t38.5 118.5l564 -4q-10 -130 -73 -264.5
t-178.5 -248t-285.5 -182.5t-395 -69q-282 0 -505.5 121t-353 356t-129.5 575q0 342 132 576.5t356 355t500 120.5q194 0 357 -53t286 -154.5t198 -249.5t91 -339z" />
    <glyph glyph-name="uni023C" unicode="&#x23c;" horiz-adv-x="1716" 
d="M1408 2048l-804 -2624h-280l800 2624h284zM880 -28q-250 0 -428 99.5t-273 278t-95 414.5t95 414.5t273 278t428 99.5q226 0 391.5 -81.5t256.5 -230t92 -348.5h-512q-11 121 -69.5 184.5t-150.5 63.5q-72 0 -126 -41.5t-84 -125t-30 -209.5t30 -209.5t84 -125t126 -41.5
q61 0 108 28.5t76.5 84t35.5 135.5h512q-3 -203 -93 -353.5t-254.5 -232.5t-392.5 -82z" />
    <glyph glyph-name="uni023D" unicode="&#x23d;" horiz-adv-x="1608" 
d="M132 0v2048h556v-1600h828v-448h-1384zM-132 948v296h1076v-296h-1076z" />
    <glyph glyph-name="uni023E" unicode="&#x23e;" horiz-adv-x="1932" 
d="M476 -260l776 2568h284l-776 -2568h-284zM76 1600v448h1780v-448h-616v-1600h-548v1600h-616z" />
    <glyph glyph-name="uni023F" unicode="&#x23f;" horiz-adv-x="1664" 
d="M504 428q107 -220 178 -351t121 -195.5t92.5 -85t92.5 -20.5q105 0 177 38t127 82l152 -264q-85 -69 -200.5 -138.5t-279.5 -69.5q-149 0 -254.5 67.5t-180 166.5t-129.5 194l-224 380zM1544 1036h-508q-4 47 -33 81t-74.5 52.5t-100.5 18.5q-71 0 -122 -26t-50 -74
q-1 -34 29.5 -63t118.5 -45l312 -56q236 -43 351.5 -144.5t116.5 -271.5q-1 -164 -97.5 -284.5t-263 -186t-379.5 -65.5q-352 0 -550.5 144t-221.5 380h548q11 -73 72.5 -112.5t155.5 -39.5q76 0 125.5 26t50.5 74q-1 44 -43.5 70t-132.5 42l-272 48q-235 41 -352 156
t-116 296q-1 160 84.5 271.5t245 170t378.5 58.5q333 0 525.5 -138t202.5 -382z" />
    <glyph glyph-name="uni0240" unicode="&#x240;" horiz-adv-x="1964" 
d="M624 416h216q122 0 207.5 -40t146.5 -102.5t108 -133.5t91 -133.5t95 -102.5t120 -40q47 0 95.5 23.5t89 53t63.5 47.5l172 -356q-85 -78 -201 -143t-271 -65q-123 0 -211 41.5t-152.5 107t-118.5 139.5t-108 139.5t-120 107t-158 41.5h-64v416zM832 416v-416h-676v284
l648 836h-604v416h1280v-288z" />
    <glyph glyph-name="uni0241" unicode="&#x241;" horiz-adv-x="1688" 
d="M616 760h208q85 0 129 38.5t59.5 111t15.5 174.5v224q0 45 -4 101.5t-22.5 109.5t-60 87t-117.5 34q-106 0 -153 -61.5t-43 -142.5h-516q-3 200 91 343.5t254 220t355 76.5q239 0 410 -98.5t262.5 -272t91.5 -397.5v-224q0 -220 -90.5 -390.5t-262.5 -268t-415 -97.5
h-192v432zM1116 760v-760h-540v760h540z" />
    <glyph glyph-name="uni0242" unicode="&#x242;" horiz-adv-x="1692" 
d="M168 936q0 186 84 325.5t235.5 217t352.5 77.5q209 0 362.5 -72.5t237.5 -205t84 -314.5q0 -163 -67.5 -279.5t-193.5 -178.5t-303 -62h-312v268h112q122 0 182.5 58t61.5 186q-1 96 -37.5 142t-118.5 46q-88 0 -124.5 -49t-35.5 -159h-520zM584 712h520v-712h-520v712z
" />
    <glyph glyph-name="uni0243" unicode="&#x243;" horiz-adv-x="2072" 
d="M324 0v2048h888q234 0 393.5 -63t241 -178t81.5 -271q0 -113 -49.5 -206t-138.5 -155.5t-208 -86.5v-20q132 -5 240 -66.5t172 -169t64 -252.5q0 -168 -87.5 -299t-248.5 -206t-384 -75h-964zM880 444h260q140 0 210 52.5t70 155.5q0 72 -33 122t-93.5 76t-145.5 26h-268
v-432zM880 1220h228q73 0 129 23t87.5 66.5t31.5 106.5q0 95 -68 145.5t-172 50.5h-236v-392zM44 512v296h1076v-296h-1076z" />
    <glyph glyph-name="uni0244" unicode="&#x244;" horiz-adv-x="2176" 
d="M2192 1148v-304h-2208v304h2208zM1428 2048h556v-1312q0 -234 -111.5 -404.5t-310.5 -263t-462 -92.5q-265 0 -464 92.5t-309.5 263t-110.5 404.5v1312h556v-1264q0 -95 42 -169.5t116.5 -116.5t169.5 -42q96 0 170 42t116 116.5t42 169.5v1264z" />
    <glyph glyph-name="uni0245" unicode="&#x245;" horiz-adv-x="2224" 
d="M1504 0l-412 1512l-72 536h388l696 -2048h-600zM1132 1512l-416 -1512h-600l696 2048h388z" />
    <glyph glyph-name="uni0246" unicode="&#x246;" horiz-adv-x="1752" 
d="M1412 2308l-740 -2568h-228l740 2568h228zM132 0v2048h1476v-448h-920v-352h844v-448h-844v-352h916v-448h-1472z" />
    <glyph glyph-name="uni0247" unicode="&#x247;" horiz-adv-x="1728" 
d="M1408 2048l-804 -2624h-280l800 2624h284zM876 -28q-246 0 -423.5 94.5t-273 272t-95.5 425.5q0 238 96 416t271 277t413 99q174 0 315 -54t241 -156.5t154 -248.5t54 -329v-128h-1372v304h864q-1 66 -33.5 116.5t-87 79t-123.5 28.5q-67 0 -123 -28.5t-89.5 -78.5
t-35.5 -117v-328q0 -74 31 -132t89 -91t140 -33q57 0 104.5 16t81.5 46.5t50 73.5h504q-26 -160 -123 -277.5t-256.5 -182t-372.5 -64.5z" />
    <glyph glyph-name="uni0248" unicode="&#x248;" horiz-adv-x="1656" 
d="M976 2048h548v-1404q-1 -200 -100.5 -351.5t-274 -236t-401.5 -84.5q-197 0 -360 68.5t-260 216t-96 383.5h556q3 -77 26.5 -130t66 -79.5t103.5 -26.5q62 0 104.5 27t64.5 80.5t23 132.5v1404zM704 1080v296h1076v-296h-1076z" />
    <glyph glyph-name="uni0249" unicode="&#x249;" horiz-adv-x="832" 
d="M140 1536h552v-1588q0 -202 -84.5 -316t-236.5 -161t-355 -47q-30 0 -55.5 1t-56.5 3v408q20 -2 34.5 -3t29.5 -1q99 0 135.5 30.5t36.5 97.5v1576zM-124 808v296h1076v-296h-1076zM417 1696q-113 0 -193 74t-80 178t80 178t192 74q113 0 192.5 -74t79.5 -178t-79.5 -178
t-191.5 -74z" />
    <glyph glyph-name="uni024A" unicode="&#x24a;" horiz-adv-x="2428" 
d="M2096 2048v-2096q0 -69 66.5 -90.5t141.5 -21.5q30 0 60.5 2.5t63.5 5.5v-408q-45 -3 -112.5 -9.5t-163.5 -6.5q-126 0 -236 19.5t-194 75t-131 160t-47 273.5v336h-16q-73 -126 -209.5 -221t-342.5 -95q-184 0 -339.5 82t-270.5 226.5t-178.5 335.5t-63.5 408
q0 219 65 410t181.5 335t271.5 225.5t334 81.5q208 0 343 -95.5t209 -220.5h16v288h552zM1120 456q138 0 232.5 65.5t143 192t48.5 310.5t-48.5 310.5t-143 192t-232.5 65.5t-232.5 -65.5t-143 -192t-48.5 -310.5t48.5 -310.5t143 -192t232.5 -65.5z" />
    <glyph glyph-name="uni024B" unicode="&#x24b;" horiz-adv-x="2016" 
d="M1740 -576q-126 0 -236 19.5t-194 75t-131 160t-47 273.5v112h552v-112q0 -46 32 -70t80 -33t96 -9q30 0 60.5 2.5t63.5 5.5v-408q-42 -3 -112.5 -9.5t-163.5 -6.5zM696 -20q-164 0 -301.5 86t-220 261t-82.5 441q0 278 86.5 452t224 255t289.5 81q86 0 155.5 -23
t123.5 -62.5t92.5 -91.5t60.5 -111h228v-1016h-228q-32 -78 -91.5 -139.5t-144 -97t-192.5 -35.5zM1684 64h-552v280l124 424l-120 416v352h548v-1472zM900 404q76 0 130.5 44.5t84 126t29.5 193.5q0 114 -29.5 195.5t-84 125t-130.5 43.5t-129.5 -43.5t-82 -125
t-28.5 -195.5t28.5 -195.5t82 -125t129.5 -43.5z" />
    <glyph glyph-name="uni024C" unicode="&#x24c;" horiz-adv-x="1956" 
d="M524 724h-508v392h508v-392zM192 0v2048h884q228 0 399 -83t266 -239t95 -374q0 -220 -97.5 -371t-273 -228t-409.5 -77h-528v432h416q98 0 167.5 24.5t107 78.5t37.5 141q0 88 -37.5 143.5t-107 82t-167.5 26.5h-196v-1604h-556zM1392 940l512 -940h-604l-500 940h592z
" />
    <glyph glyph-name="uni024D" unicode="&#x24d;" horiz-adv-x="1220" 
d="M140 0v1536h536v-292h16q42 162 133.5 237t214.5 75q36 0 71.5 -5.5t68.5 -15.5v-471q-41 14 -101 21t-103 7q-81 0 -145.5 -36.5t-101.5 -102t-37 -153.5v-800h-552zM-124 600v296h1076v-296h-1076z" />
    <glyph glyph-name="uni024E" unicode="&#x24e;" horiz-adv-x="2152" 
d="M2116 1616v-260h-2080v260h2080zM48 2048h620l400 -832h16l400 832h620l-752 -1404v-644h-552v644z" />
    <glyph glyph-name="uni024F" unicode="&#x24f;" horiz-adv-x="1732" 
d="M1716 996v-236h-1700v236h1700zM500 -576q-95 0 -181 14.5t-151 39.5l120 392q68 -24 124.5 -31t97 8t58.5 57l12 28l-540 1604h576l248 -1064h16l252 1064h580l-560 -1664q-42 -127 -121.5 -228.5t-208.5 -160.5t-322 -59z" />
    <glyph glyph-name="uni0250" unicode="&#x250;" horiz-adv-x="1664" 
d="M1096 1560q147 0 260 -48t176.5 -147.5t63.5 -252.5q0 -126 -43 -215.5t-120 -146.5t-179.5 -87t-221.5 -39q-129 -9 -207.5 -24t-113.5 -41t-35 -71v-4q0 -60 46 -92t118 -32q79 0 128.5 34.5t59.5 105.5h508q-9 -140 -89 -258.5t-232.5 -190t-382.5 -71.5
q-165 0 -296 38.5t-223 107t-140.5 160.5t-48.5 198v1052h516v-216h12q47 86 112 139t148.5 77t183.5 24zM916 1212q-62 0 -118 -26t-91 -75t-35 -119v-128q22 9 46.5 17t52 15t58 13t63.5 11q64 10 104.5 32.5t60 55.5t19.5 72q0 65 -44.5 98.5t-115.5 33.5z" />
    <glyph glyph-name="uni0251" unicode="&#x251;" horiz-adv-x="1856" 
d="M772 -32q-194 1 -348 102.5t-243 281.5t-89 416t92.5 413t247 276t340.5 99q114 0 215.5 -38t177.5 -109.5t115 -172.5h152l152 -464l180 -772h-400l-168 772q-15 78 -40 144t-62.5 114.5t-88.5 75t-117 26.5q-88 0 -146.5 -46t-88 -126t-29.5 -184q0 -109 32 -193
t89 -131.5t131 -47.5q60 0 112 29.5t93.5 80.5t71 115.5t43.5 134.5l156 772h392l-160 -772l-152 -440h-152q-34 -99 -101 -179.5t-168.5 -128.5t-238.5 -48z" />
    <glyph glyph-name="uni0252" unicode="&#x252;" horiz-adv-x="1964" 
d="M1776 764v-32q0 -220 -67.5 -392.5t-195.5 -272t-309 -99.5q-133 0 -227 63t-156.5 173.5t-102 255.5t-62.5 308v20q31 216 91 390t170 276t291 102q179 0 306.5 -97t195 -275t66.5 -420zM1256 732v32q0 102 -14.5 188.5t-61.5 139t-144 52.5q-91 0 -142.5 -33
t-72.5 -101t-21 -174v-128q0 -102 21.5 -174.5t73.5 -111t145 -38.5q79 0 127 45.5t69 124t20 178.5zM800 0h-456v976q0 81 -20.5 126.5t-79.5 45.5q-4 0 -6.5 -2t-13.5 -2l-32 388q44 12 88.5 18t91.5 6q230 0 361 -147t131 -429v-668z" />
    <glyph glyph-name="uni0253" unicode="&#x253;" horiz-adv-x="1824" 
d="M1128 -20q-108 0 -192.5 35.5t-144 97t-91.5 139.5h-12v-252h-548v1548q0 186 57 293t151 157t205 64t219 14q99 0 161.5 -6.5t110.5 -9.5v-408q-33 3 -61.5 5.5t-58.5 2.5q-50 0 -104 -9t-91 -33t-37 -70v-280h8q30 78 88 143.5t144 105t200 39.5q152 0 289.5 -81
t224 -255t86.5 -452q0 -266 -82.5 -441t-220 -261t-301.5 -86zM924 404q76 0 129.5 43.5t82 125t28.5 195.5t-28.5 195.5t-82 125t-129.5 43.5t-130.5 -43.5t-84 -125t-29.5 -195.5q0 -112 29.5 -193.5t84 -126t130.5 -44.5z" />
    <glyph glyph-name="uni0254" unicode="&#x254;" horiz-adv-x="1684" 
d="M140 556h484q-1 -58 21.5 -95t67 -55t107.5 -18q99 0 142 48.5t53 131t9 184.5v24q0 82 -8.5 167t-50.5 143t-145 58q-104 0 -151 -65.5t-45 -182.5h-484q-1 224 85 370.5t238 218t345 71.5q243 0 406.5 -99t246.5 -275t83 -406v-24q1 -232 -82.5 -407.5t-248 -274
t-409.5 -98.5q-189 0 -340 69.5t-238 200t-86 314.5z" />
    <glyph glyph-name="uni0255" unicode="&#x255;" horiz-adv-x="1724" 
d="M896 -28q-248 0 -428.5 96.5t-278 274.5t-97.5 421q0 236 95 414.5t273 278t428 99.5q226 0 391.5 -81.5t256 -230t92.5 -348.5h-512q-12 120 -69.5 184t-150.5 64q-72 0 -126 -41.5t-84 -125t-30 -209.5t30 -213.5t84 -133t126 -45.5v-404zM592 -192l-344 212
q113 172 206 304.5t176 228.5t166 158t174.5 91.5t201.5 29.5q132 0 236.5 -41t165.5 -121.5t62 -201.5q1 -127 -75.5 -240.5t-240 -184.5t-424.5 -71v404q140 0 204 21t68 55q3 21 -9 34.5t-35 13.5q-22 0 -47 -14t-61 -53.5t-90.5 -116t-135.5 -200.5t-198 -308z" />
    <glyph glyph-name="uni0256" unicode="&#x256;" horiz-adv-x="1824" 
d="M1740 -576q-126 0 -235.5 19.5t-192.5 75t-129.5 160t-46.5 273.5v388h548v-388q0 -46 32 -70t80.5 -33t95.5 -9q31 0 61.5 2.5t62.5 5.5v-408q-41 -3 -111.5 -9.5t-164.5 -6.5zM696 -20q-164 0 -301.5 86t-220 261t-82.5 441q0 278 86.5 452t224 255t289.5 81
q114 0 200 -39.5t144 -105t88 -143.5h8v780h552v-2048h-548v252h-12q-32 -78 -91.5 -139.5t-144 -97t-192.5 -35.5zM900 404q76 0 130.5 44.5t84 126t29.5 193.5q0 114 -29.5 195.5t-84 125t-130.5 43.5t-129.5 -43.5t-82 -125t-28.5 -195.5t28.5 -195.5t82 -125
t129.5 -43.5z" />
    <glyph glyph-name="uni0257" unicode="&#x257;" horiz-adv-x="1924" 
d="M696 -20q-164 0 -301.5 86t-220 261t-82.5 441q0 278 86.5 452t224 255t289.5 81q114 0 200 -39.5t144 -105t88 -143.5h228v-1016h-228q-32 -78 -90.5 -139.5t-143 -97t-194.5 -35.5zM1132 1528q0 189 64.5 299.5t165.5 163.5t213.5 69t208.5 16q84 0 158.5 -9t113.5 -15
v-404q-39 6 -66 9t-54 3q-36 0 -96 -1.5t-108 -28t-48 -102.5v-1528h-548v392l200 336l-204 464v336zM900 404q76 0 130.5 44.5t84 126t29.5 193.5q0 114 -29.5 195.5t-84 125t-130.5 43.5t-129.5 -43.5t-82 -125t-28.5 -195.5t28.5 -195.5t82 -125t129.5 -43.5z" />
    <glyph glyph-name="uni0258" unicode="&#x258;" horiz-adv-x="1680" 
d="M772 -28q-153 0 -276.5 37t-212 95t-139.5 120l232 296q70 -78 163 -105t175 -27q112 0 190 37t119.5 110t40.5 181v52q0 48 -5.5 112t-28.5 124t-74 100t-142 40q-63 0 -111.5 -23t-75.5 -70t-27 -119v-20h792v-316h-1292v216q0 236 87.5 402.5t248.5 254t380 87.5
q261 0 431 -108t253.5 -287t83.5 -393v-52q0 -148 -54.5 -282.5t-159 -238t-255.5 -163.5t-343 -60z" />
    <glyph glyph-name="uni0259" unicode="&#x259;" horiz-adv-x="1712" 
d="M836 1564q246 0 423.5 -94.5t273 -271.5t95.5 -426q0 -238 -96 -416t-271 -277t-413 -99q-174 0 -315 54t-241 156.5t-154 248.5t-54 329v128h1372v-304h-864q2 -66 34 -116.5t87 -79t123 -28.5t123.5 28.5t89.5 79t35 116.5v328q0 74 -31 132t-89 91t-140 33
q-56 0 -104 -16t-82 -46t-50 -74h-504q26 160 123 277.5t256.5 182t372.5 64.5z" />
    <glyph glyph-name="uni025A" unicode="&#x25a;" horiz-adv-x="2588" 
d="M868 1516q259 0 440 -103t276 -269t96 -356v-48q-1 -204 -82 -379t-249 -282t-429 -107q-221 0 -382 87t-248 249t-86 388v76l1316 324v-328l-816 -192v-20q-1 -60 22 -97t72 -54t126 -17q88 0 137.5 39t71.5 96.5t28 117t7 99.5v48q-1 100 -43.5 170.5t-118 108
t-174.5 37.5q-103 0 -199 -29t-161 -107l-224 300q43 58 130.5 115t212 95t277.5 38zM1504 764v324l528 124q27 -160 42 -266.5t49 -160t117 -53.5q17 0 38 2t46 2l64 -320q-58 -33 -123 -50.5t-133 -17.5q-147 0 -225.5 63t-117 170t-65.5 239z" />
    <glyph glyph-name="uni025B" unicode="&#x25b;" horiz-adv-x="1656" 
d="M708 808h376v-196h-240q-53 0 -110 -9.5t-97 -38t-41 -84.5q2 -45 55.5 -88.5t168.5 -43.5q125 0 181.5 25t54.5 67h512q1 -121 -59.5 -209.5t-162 -146t-227 -85t-255.5 -27.5q-217 0 -393.5 53.5t-281 154t-105.5 240.5q1 95 44 167t124 121.5t196 74.5t260 25z
M1084 752h-376q-130 0 -239 28.5t-190 79t-125.5 117.5t-45.5 143q1 142 99.5 239t269 147t387.5 50q185 0 341 -55.5t250 -160t93 -252.5h-520q2 57 -56 74.5t-144 17.5q-106 0 -152 -38.5t-48 -77.5q2 -51 62 -81.5t154 -30.5h240v-200z" />
    <glyph glyph-name="uni025C" unicode="&#x25c;" horiz-adv-x="1676" 
d="M928 808q145 0 260 -25t196 -74.5t124 -121.5t44 -167q-1 -140 -105.5 -240.5t-281 -154t-393.5 -53.5q-130 0 -255.5 27.5t-227 85t-162 146t-59.5 209.5h512q-1 -42 55.5 -67t180.5 -25q116 0 169.5 43.5t54.5 88.5q-1 56 -41 84.5t-97 38t-110 9.5h-240v196h376z
M552 752v200h240q95 0 155 30.5t61 81.5q-1 39 -47 77.5t-153 38.5q-85 0 -143 -17.5t-57 -74.5h-520q-1 148 93 252.5t250 160t341 55.5q217 0 387.5 -50t269 -147t99.5 -239q-1 -76 -45.5 -143t-125.5 -117.5t-190 -79t-239 -28.5h-376z" />
    <glyph glyph-name="uni025D" unicode="&#x25d;" horiz-adv-x="2460" 
d="M1360 888v332l536 116q24 -152 38.5 -257.5t49 -160t116.5 -54.5q20 0 39 -1.5t41 1.5l68 -324q-55 -30 -122.5 -45t-129.5 -15q-148 0 -226.5 62t-118 168t-71.5 238zM936 808q145 0 260 -25t196 -74.5t124 -121.5t44 -167q-1 -140 -105.5 -240.5t-281 -154
t-393.5 -53.5q-130 0 -255.5 27.5t-227 85t-162 146t-59.5 209.5h512q-1 -42 55.5 -67t180.5 -25q116 0 169.5 43.5t54.5 88.5q-1 56 -41 84.5t-97 38t-110 9.5h-240v196h376zM560 752v200h240q95 0 155 30.5t61 81.5q-1 39 -47 77.5t-153 38.5q-85 0 -143 -17.5t-57 -74.5
h-520q-1 148 93 252.5t250 160t341 55.5q217 0 387.5 -50t269 -147t99.5 -239q-1 -76 -45.5 -143t-125.5 -117.5t-190 -79t-239 -28.5h-376z" />
    <glyph glyph-name="uni025E" unicode="&#x25e;" horiz-adv-x="1688" 
d="M824 -28q-125 0 -252 45.5t-233 143t-170.5 252t-64.5 371.5h516q-1 -243 68.5 -337.5t175.5 -94.5q98 0 130.5 41.5t33.5 86.5q0 54 -24 84.5t-66 43t-98 12.5h-16v188h152q139 0 245.5 -25t179 -74.5t110 -121.5t37.5 -167q0 -140 -95 -240.5t-258 -154t-371 -53.5z
M976 752h-152v192h16q83 0 121 34.5t39 85.5q-1 39 -26 77.5t-114 38.5q-46 0 -102.5 -26.5t-97 -111t-40.5 -258.5h-516q0 209 61 356t164.5 238.5t232 134.5t262.5 43q311 0 503 -111.5t193 -324.5q0 -76 -39 -143t-111 -117.5t-171.5 -79t-222.5 -28.5z" />
    </font>
</defs>
</svg>
